Жуки 3D / Bugs / Shi ren chong (Юа Ян / Jia Yan) [2014, Китай, ужасы, фантастика, WEB-DLRip] DVO (den904 & DeadSno)

Ответить на тему
 
Автор Сообщение

user ®

Стаж: 13 лет

Сообщений: 15071

Пост Пост: #1 от 12-Мар-2015 20:51

[Цитировать]

Жуки 3D / Bugs / Shi ren chong
Страна: Китай / China
Жанр: ужасы, фантастика
Год выпуска: 2014
Продолжительность: 01:21:58
Перевод : Любительский (двухголосый закадровый) den904 & DeadSno
Cубтитры: нет
Режиссер: Юа Ян / Jia YanВ ролях:
Юн Ён Као / Yun Jin Cao
Чун-Чен Динг / Sphinx Ting
Чуанжун Ванг / Chuanjun Wang
Цзытун Ся / Zitong Xia
Рю Сю / Rui Xiu
Хуаньшань Сюй / Huanshan Xu
Цзылинь Чжан / Zilin Zhang
Описание: Приехавшая на курорт разношерстная публика, не подозревает, что округа населена мутантами-насекомыми, которые мечтают поживиться человеческой плотью.Доп. информация:
ВНИМАНИЕ!!!НЕНОРМАТИВНАЯ ЛЕКСИКА!!!18+!!!
Качество видео: WEB-DLRip [WEB-DL 1080p]
Формат видео: AVI
Видео кодек: XviD
Аудио кодек: AC3
Видео: 720x304 (2,35:1), 25 fps, XviD, 2177 kbps avg, 0.398 bit/pixel
Аудио : Rus 192.00 kbps avg, 48,0 kHz, 2 ch, AC3 Dolby Digital DVO

MediaInfo

Общее
Полное имя : C:\Zhuki.2014.DVO.WEB-DLRip.by medvezhonokkkk.avi
Формат : AVI
Формат/Информация : Audio Video Interleave
Размер файла : 1,36 Гбайт
Продолжительность : 1 ч. 21 м.
Общий поток : 2379 Кбит/сек
Программа кодирования : VirtualDubMod 1.5.10.3 | www.virtualdub-fr.org || (build 2550/release)
Библиотека кодирования : VirtualDubMod build 2550/release
Видео
Идентификатор : 0
Формат : MPEG-4 Visual
Профиль формата : Advanced Simple@L5
Параметр BVOP формата : 1
Параметр QPel формата : Нет
Параметр GMC формата : Без точки перехода
Параметр матрицы формата : Выборочная
Идентификатор кодека : XVID
Идентификатор кодека/Подсказка : XviD
Продолжительность : 1 ч. 21 м.
Битрейт : 2177 Кбит/сек
Ширина : 720 пикселей
Высота : 304 пикселя
Соотношение сторон : 2,35:1
Частота кадров : 25,000 кадров/сек
Цветовое пространство : YUV
Субдискретизация насыщенности : 4:2:0
Битовая глубина : 8 бит
Тип развёртки : Прогрессивная
Метод сжатия : С потерями
Бит/(Пиксели*Кадры) : 0.398
Размер потока : 1,25 Гбайт (92%)
Библиотека кодирования : XviD 73
Аудио
Идентификатор : 1
Формат : AC-3
Формат/Информация : Audio Coding 3
Расширение режима : CM (complete main)
Параметр Endianness формата : Big
Идентификатор кодека : 2000
Продолжительность : 1 ч. 21 м.
Вид битрейта : Постоянный
Битрейт : 192 Кбит/сек
Каналы : 2 канала
Расположение каналов : Front: L R
Частота : 48,0 КГц
Битовая глубина : 16 бит
Метод сжатия : С потерями
Размер потока : 113 Мбайт (8%)
Выравнивание : Разделение по промежуткам
Продолжительность промежутка : 40 мс. (1,00 видеокадр)
Время предзагрузки промежутка : 500 мс.
Скриншот c названием фильма Скриншоты
Скачать

Скачать торрент! Жуки 3D / Bugs / Shi ren chong (Юа Ян / Jia Yan) [2014, Китай, ужасы, фантастика, WEB-DLRip] DVO (den904 & DeadSno)

Как скачивать? · Что такое торрент? · Рейтинг и ограничения

Сайт не распространяет и не хранит электронные версии произведений, а лишь предоставляет доступ к создаваемому пользователями каталогу ссылок на торрент-файлы, которые содержат только списки хеш-сумм

[Профиль] [ЛС]
Показать сообщения:    
Ответить на тему

Текущее время: Сегодня 20:56

Часовой пояс: GMT + 4



Вы не можете начинать темы
Вы не можете отвечать на сообщения
Вы не можете редактировать свои сообщения
Вы не можете удалять свои сообщения
Вы не можете голосовать в опросах
Вы не можете прикреплять файлы к сообщениям
Вы не можете скачивать файлы