Весёлая карусель. Выпуски 34-38 [2012-2014, детский мультжурнал, WEBRip-AVC]

Ответить на тему
 
Автор Сообщение

user ®

Стаж: 7 лет 7 месяцев

Сообщений: 20008

Пост Пост: #1 от 07-Мар-2015 06:42

[Цитировать]

Весёлая карусель
Страна: Россия
Жанр: детский мультжурнал
Новые выпуски старого доброго мультипликационного журнала для малышей.
Короткие сюжеты. В основном, экранизации детских песенок и стихов.

Веселая карусель № 34
Год выпуска: 2012
Продолжительность: 00:13:26
Содержание:
"Как кричит крокодил?" реж. Элла Авакян
"Ах, если б к нам приехал лес!" реж. Светлана Халькина
"Куда идут животные" реж. Мария Быстрова
Качество видео: WEBRip-AVC
Формат видео: MP4
Видео: 1442 kbps, 1280х720 (16:9), 25.000 fps, AVC (High@L3.1)
Аудио: 192 kbps, 44.1 kHz, 2 channels, AAC (LC)
MediaInfo
General
Complete name : Веселая карусель № 34.mp4
Format : MPEG-4
Format profile : Base Media / Version 2
Codec ID : mp42
File size : 157 MiB
Duration : 13mn 26s
Overall bit rate mode : Variable
Overall bit rate : 1 637 Kbps
Encoded date : UTC 2014-05-11 20:43:10
Tagged date : UTC 2014-05-11 20:43:10
gsst : 0
gstd : 806103
gssd : BADC2942CHH1423067942056851
gshh : r12---sn-n8v7znek.googlevideo.com
Video
ID : 1
Format : AVC
Format/Info : Advanced Video Codec
Format profile : High@L3.1
Format settings, CABAC : Yes
Format settings, ReFrames : 1 frame
Codec ID : avc1
Codec ID/Info : Advanced Video Coding
Duration : 13mn 26s
Bit rate : 1 442 Kbps
Maximum bit rate : 7 448 Kbps
Width : 1 280 pixels
Height : 720 pixels
Display aspect ratio : 16:9
Frame rate mode : Constant
Frame rate : 25.000 fps
Color space : YUV
Chroma subsampling : 4:2:0
Bit depth : 8 bits
Scan type : Progressive
Bits/(Pixel*Frame) : 0.063
Stream size : 139 MiB (88%)
Tagged date : UTC 2014-05-11 20:43:24
Audio
ID : 2
Format : AAC
Format/Info : Advanced Audio Codec
Format profile : LC
Codec ID : 40
Duration : 13mn 26s
Bit rate mode : Variable
Bit rate : 192 Kbps
Maximum bit rate : 202 Kbps
Channel(s) : 2 channels
Channel positions : Front: L R
Sampling rate : 44.1 KHz
Compression mode : Lossy
Stream size : 18.4 MiB (12%)
Title : IsoMedia File Produced by Google, 5-11-2011
Encoded date : UTC 2014-05-11 20:43:18
Tagged date : UTC 2014-05-11 20:43:24
Скриншоты Веселая карусель № 35
Год выпуска: 2013
Продолжительность: 00:14:00
Содержание: "Вот был бы большим" реж. Павел Носырев
"Так не бывает" реж. Алексей Злобин
"Четыре обезьяны" реж. Октябрина Потапова
"Месяц - лимонная долька" реж. Светлана Халькина
Качество видео: WEBRip-AVC
Формат видео: MP4
Видео: 1832 kbps, 1280х720 (16:9), 25.000 fps, AVC (High@L3.1)
Аудио: 192 kbps, 44.1 kHz, 2 channels, AAC (LC)
MediaInfo
General
Complete name : Веселая карусель № 35.mp4
Format : MPEG-4
Format profile : Base Media / Version 2
Codec ID : mp42
File size : 203 MiB
Duration : 14mn 0s
Overall bit rate mode : Variable
Overall bit rate : 2 027 Kbps
Encoded date : UTC 2014-11-22 05:29:36
Tagged date : UTC 2014-11-22 05:29:36
gsst : 0
gstd : 840306
gssd : BADC23AC3HH1423068056569276
gshh : r3---sn-n8v7lnel.googlevideo.com
Video
ID : 1
Format : AVC
Format/Info : Advanced Video Codec
Format profile : High@L3.1
Format settings, CABAC : Yes
Format settings, ReFrames : 1 frame
Codec ID : avc1
Codec ID/Info : Advanced Video Coding
Duration : 14mn 0s
Bit rate : 1 832 Kbps
Maximum bit rate : 8 463 Kbps
Width : 1 280 pixels
Height : 720 pixels
Display aspect ratio : 16:9
Frame rate mode : Constant
Frame rate : 25.000 fps
Color space : YUV
Chroma subsampling : 4:2:0
Bit depth : 8 bits
Scan type : Progressive
Bits/(Pixel*Frame) : 0.080
Stream size : 184 MiB (90%)
Tagged date : UTC 2014-11-22 05:29:44
Audio
ID : 2
Format : AAC
Format/Info : Advanced Audio Codec
Format profile : LC
Codec ID : 40
Duration : 14mn 0s
Bit rate mode : Variable
Bit rate : 192 Kbps
Maximum bit rate : 202 Kbps
Channel(s) : 2 channels
Channel positions : Front: L R
Sampling rate : 44.1 KHz
Compression mode : Lossy
Stream size : 19.2 MiB (9%)
Title : IsoMedia File Produced by Google, 5-11-2011
Encoded date : UTC 2014-11-22 05:29:41
Tagged date : UTC 2014-11-22 05:29:44
Скриншоты Веселая карусель № 36
Год выпуска: 2014
Продолжительность: 00:10:50
Содержание: "Военная инструкция для мальчишек" реж. Константин Щёкин
"РРР" реж. Екатерина Савина
"Тайна старика Тимофея" реж. Павел Носырев
Качество видео: WEBRip-AVC
Формат видео: MP4
Видео: 1708 kbps, 1280х720 (16:9), 25.000 fps, AVC (High@L3.1)
Аудио: 192 kbps, 44.1 kHz, 2 channels, AAC (LC)
MediaInfo
General
Complete name : Веселая карусель № 36.mp4
Format : MPEG-4
Format profile : Base Media / Version 2
Codec ID : mp42
File size : 147 MiB
Duration : 10mn 50s
Overall bit rate mode : Variable
Overall bit rate : 1 902 Kbps
Encoded date : UTC 2014-09-26 03:27:05
Tagged date : UTC 2014-09-26 03:27:05
gsst : 0
gstd : 650366
gssd : B5FB51004HH1423068101301042
gshh : r1---sn-xapbiu-3xwe.googlevideo.com
Video
ID : 1
Format : AVC
Format/Info : Advanced Video Codec
Format profile : High@L3.1
Format settings, CABAC : Yes
Format settings, ReFrames : 1 frame
Codec ID : avc1
Codec ID/Info : Advanced Video Coding
Duration : 10mn 50s
Bit rate : 1 708 Kbps
Maximum bit rate : 5 236 Kbps
Width : 1 280 pixels
Height : 720 pixels
Display aspect ratio : 16:9
Frame rate mode : Constant
Frame rate : 25.000 fps
Color space : YUV
Chroma subsampling : 4:2:0
Bit depth : 8 bits
Scan type : Progressive
Bits/(Pixel*Frame) : 0.074
Stream size : 132 MiB (90%)
Tagged date : UTC 2014-09-26 03:27:12
Audio
ID : 2
Format : AAC
Format/Info : Advanced Audio Codec
Format profile : LC
Codec ID : 40
Duration : 10mn 50s
Bit rate mode : Variable
Bit rate : 192 Kbps
Maximum bit rate : 202 Kbps
Channel(s) : 2 channels
Channel positions : Front: L R
Sampling rate : 44.1 KHz
Compression mode : Lossy
Stream size : 14.9 MiB (10%)
Title : IsoMedia File Produced by Google, 5-11-2011
Encoded date : UTC 2014-09-26 03:27:10
Tagged date : UTC 2014-09-26 03:27:12
Скриншоты Веселая карусель № 37
Год выпуска: 2014
Продолжительность: 00:11:30
Содержание: "Сколько лап у собаки?" реж. Борис Коршунов
"Советчики" реж. Сергей Ромашкин
"Снежные зайчики" реж. Елизавета и Полина Манохины
Качество видео: WEBRip-AVC
Формат видео: MP4
Видео: 1662 kbps, 1280х720 (16:9), 25.000 fps, AVC (High@L3.1)
Аудио: 192 kbps, 44.1 kHz, 2 channels, AAC (LC)
MediaInfo
General
Complete name : Веселая карусель № 37.mp4
Format : MPEG-4
Format profile : Base Media / Version 2
Codec ID : mp42
File size : 153 MiB
Duration : 11mn 30s
Overall bit rate mode : Variable
Overall bit rate : 1 856 Kbps
Encoded date : UTC 2014-09-21 02:21:29
Tagged date : UTC 2014-09-21 02:21:29
gsst : 0
gstd : 691025
gssd : BADC2944AHH1423068173675465
gshh : r10---sn-n8v7zner.googlevideo.com
Video
ID : 1
Format : AVC
Format/Info : Advanced Video Codec
Format profile : High@L3.1
Format settings, CABAC : Yes
Format settings, ReFrames : 1 frame
Codec ID : avc1
Codec ID/Info : Advanced Video Coding
Duration : 11mn 30s
Bit rate : 1 662 Kbps
Maximum bit rate : 7 136 Kbps
Width : 1 280 pixels
Height : 720 pixels
Display aspect ratio : 16:9
Frame rate mode : Constant
Frame rate : 25.000 fps
Color space : YUV
Chroma subsampling : 4:2:0
Bit depth : 8 bits
Scan type : Progressive
Bits/(Pixel*Frame) : 0.072
Stream size : 137 MiB (90%)
Tagged date : UTC 2014-09-21 02:21:40
Audio
ID : 2
Format : AAC
Format/Info : Advanced Audio Codec
Format profile : LC
Codec ID : 40
Duration : 11mn 30s
Bit rate mode : Variable
Bit rate : 192 Kbps
Maximum bit rate : 201 Kbps
Channel(s) : 2 channels
Channel positions : Front: L R
Sampling rate : 44.1 KHz
Compression mode : Lossy
Stream size : 15.8 MiB (10%)
Title : IsoMedia File Produced by Google, 5-11-2011
Encoded date : UTC 2014-09-21 02:21:37
Tagged date : UTC 2014-09-21 02:21:40
Скриншоты Веселая карусель № 38
Год выпуска: 2014
Продолжительность: 00:11:07
Содержание: "Ямка с водой" реж. Татьяна Ильина
"Сын капитана" реж. Светлана Халькина
"Ушла в Париж" реж. Алексей Миронов, Юлия Матросова
Качество видео: WEBRip-AVC
Формат видео: MP4
Видео: 1613 kbps, 1280х720 (16:9), 25.000 fps, AVC (High@L3.1)
Аудио: 192 kbps, 44.1 kHz, 2 channels, AAC (LC)
MediaInfo
General
Complete name : Веселая карусель № 38.mp4
Format : MPEG-4
Format profile : Base Media / Version 2
Codec ID : mp42
File size : 144 MiB
Duration : 11mn 7s
Overall bit rate mode : Variable
Overall bit rate : 1 808 Kbps
Encoded date : UTC 2014-10-05 03:09:12
Tagged date : UTC 2014-10-05 03:09:12
gsst : 0
gstd : 667688
gssd : B5FB51006HH1423068233395421
gshh : r3---sn-xapbiu-3xwe.googlevideo.com
Video
ID : 1
Format : AVC
Format/Info : Advanced Video Codec
Format profile : High@L3.1
Format settings, CABAC : Yes
Format settings, ReFrames : 1 frame
Codec ID : avc1
Codec ID/Info : Advanced Video Coding
Duration : 11mn 7s
Bit rate : 1 613 Kbps
Maximum bit rate : 6 045 Kbps
Width : 1 280 pixels
Height : 720 pixels
Display aspect ratio : 16:9
Frame rate mode : Constant
Frame rate : 25.000 fps
Color space : YUV
Chroma subsampling : 4:2:0
Bit depth : 8 bits
Scan type : Progressive
Bits/(Pixel*Frame) : 0.070
Stream size : 128 MiB (89%)
Tagged date : UTC 2014-10-05 03:09:18
Audio
ID : 2
Format : AAC
Format/Info : Advanced Audio Codec
Format profile : LC
Codec ID : 40
Duration : 11mn 7s
Bit rate mode : Variable
Bit rate : 192 Kbps
Maximum bit rate : 201 Kbps
Channel(s) : 2 channels
Channel positions : Front: L R
Sampling rate : 44.1 KHz
Compression mode : Lossy
Stream size : 15.3 MiB (11%)
Title : IsoMedia File Produced by Google, 5-11-2011
Encoded date : UTC 2014-10-05 03:09:17
Tagged date : UTC 2014-10-05 03:09:18
Скриншоты
Скачать

Скачать торрент!

Как скачивать? · Что такое торрент? · Рейтинг и ограничения

Сайт не распространяет и не хранит электронные версии произведений, а лишь предоставляет доступ к создаваемому пользователями каталогу ссылок на торрент-файлы, которые содержат только списки хеш-сумм

[Профиль] [ЛС]
Показать сообщения:    
Ответить на тему

Текущее время: Сегодня 00:34

Часовой пояс: GMT + 4



Вы не можете начинать темы
Вы не можете отвечать на сообщения
Вы не можете редактировать свои сообщения
Вы не можете удалять свои сообщения
Вы не можете голосовать в опросах
Вы не можете прикреплять файлы к сообщениям
Вы не можете скачивать файлы