Люк / Manhole / Maen-hol (Чжэ-Йенг Шин / Jae-Young Shin) [2014, Корея Южная, ужасы, триллер, HDRip] DVO (DeadSno & den904)

Ответить на тему
 
Автор Сообщение

user ®

Стаж: 11 лет

Сообщений: 15151

Пост Пост: #1 от 04-Мар-2015 09:33

[Цитировать]

Люк / Manhole / Maen-hol
Страна: Корея Южная
Жанр: ужасы, триллер
Год выпуска: 2014
Продолжительность: 01:40:34
Перевод: Любительский (двухголосый закадровый) DeadSno & den904
Cубтитры: нет
Режиссер: Чжэ-Йенг Шин / Jae-Young Shin
В ролях: Кён Хо Чон, Ю Ми Чон (II), Сэ Рон Ким, Ён Ю Ли, Даль Хван Чо, Док Ман Чхве, Ю Бин Сон, Бин У Ким, Хён У Со
Описание: Вот уже полгода окрестности Сеула терроризирует серийный убийца, который использует канализационные люки для похищения и убийств своих жертв. За это время бесследно исчезло уже десять человек и теперь похищена молодая девушка Су Чжон. Старшая сестра похищенной Ён Со пытается спасти свою сестру прежде, чем для Су Чжон станет слишком поздно…
Релиз от -
Сэмпл: http://multi-up.com/1036322
Качество видео: HDRip / Manhole 2014 720p HDRip H264-CINEFOX
Формат видео: AVI
Видео: XviD, 898 Kbps, 640 х 272 pixels, 23.976 fps
Аудио: MP3, 128 Kbps, 2 channels, 48.0 KHz

MediaInfo
General
Complete name : D:\Manhole.2014.HDRip.745mb.avi
Format : AVI
Format/Info : Audio Video Interleave
File size : 745 MiB
Duration : 1h 40mn
Overall bit rate : 1 035 Kbps
Writing application : VirtualDubMod 1.5.10.3 | www.virtualdub-fr.org || (build 2550/release)
Writing library : VirtualDubMod build 2550/release
Video
ID : 0
Format : MPEG-4 Visual
Format profile : Advanced Simple@L5
Format settings, BVOP : 1
Format settings, QPel : No
Format settings, GMC : No warppoints
Format settings, Matrix : Custom
Codec ID : XVID
Codec ID/Hint : XviD
Duration : 1h 40mn
Bit rate : 898 Kbps
Width : 640 pixels
Height : 272 pixels
Display aspect ratio : 2.35:1
Frame rate : 23.976 fps
Color space : YUV
Chroma subsampling : 4:2:0
Bit depth : 8 bits
Scan type : Progressive
Compression mode : Lossy
Bits/(Pixel*Frame) : 0.215
Stream size : 646 MiB (87%)
Writing library : XviD 73
Audio
ID : 1
Format : MPEG Audio
Format version : Version 1
Format profile : Layer 3
Codec ID : 55
Codec ID/Hint : MP3
Duration : 1h 40mn
Bit rate mode : Constant
Bit rate : 128 Kbps
Channel(s) : 2 channels
Sampling rate : 48.0 KHz
Compression mode : Lossy
Stream size : 92.1 MiB (12%)
Alignment : Aligned on interleaves
Interleave, duration : 42 ms (1.00 video frame)
Interleave, preload duration : 504 ms
Writing library : LAME3.99r
Encoding settings : -m s -V 4 -q 2 -lowpass 17 -b 128
Скриншот c названием фильма Скриншоты
Скачать

Скачать торрент! Люк / Manhole / Maen-hol (Чжэ-Йенг Шин / Jae-Young Shin) [2014, Корея Южная, ужасы, триллер, HDRip] DVO (DeadSno & den904)

Как скачивать? · Что такое торрент? · Рейтинг и ограничения

Сайт не распространяет и не хранит электронные версии произведений, а лишь предоставляет доступ к создаваемому пользователями каталогу ссылок на торрент-файлы, которые содержат только списки хеш-сумм

[Профиль] [ЛС]
Показать сообщения:    
Ответить на тему

Текущее время: Сегодня 04:28

Часовой пояс: GMT + 4



Вы не можете начинать темы
Вы не можете отвечать на сообщения
Вы не можете редактировать свои сообщения
Вы не можете удалять свои сообщения
Вы не можете голосовать в опросах
Вы не можете прикреплять файлы к сообщениям
Вы не можете скачивать файлы