Я / I (С. Шанкар / S. Shankar) [2015, Индия, Боевик, фантастика, фэнтези, триллер, DVDRip] DVO (DeadSno & den904) + Sub Rus (песни)

Ответить на тему
 
Автор Сообщение

user ®

Стаж: 12 лет

Сообщений: 15092

Пост Пост: #1 от 03-Мар-2015 14:45

[Цитировать]

Я / I
-Страна: Индия
Жанр: Боевик, фантастика, фэнтези, триллер
Год выпуска: 2015
Продолжительность: 02:50:18--Перевод: Любительский (двухголосый закадровый) - DeadSno & den904
Субтитры: Есть (только песни)
Перевод и редакция: Honey&Haseena--Режиссер: С. Шанкар / S. Shankar-В ролях: Чийян Викрам, Эми Джексон, Суреш Гопи, Упен Патель, Сантханам, Мохан Капур--Описание: Красавица Дия - звезда модельного бизнеса, но в то же время, скромная и порядочная девушка. Устав от домогательств своего партнера по съемкам, она обращается за помощью к звездному бодибилдеру Лингесану. Ее план прост: заменить наглого напарника Джона, сделав из Лингесана звезду. Однако деревянный качок никак не может постичь даже азов актерского мастерства, а потому менеджеру Дии, который тоже хочет помочь девушке, приходит на ум хитрый план, который удается и Лингесан становится самой популярной моделью. Однако завистники не дремлют, заключив подлый союз, они заражают Лингесана страшной и редкой болезнью...
(c) Honey- --Качество видео: DVDRip
Формат видео: AVI-Видео: 672x288 (2.33:1), 25 fps, XviD build 50 ~984 kbps avg, 0.20 bit/pixel
Аудио: Dolby Digital, 2/0 (L,R) ch, ~192 kbps
Формат субтитров: ASS (отключаемые, отдельный файл)--Сэмпл / Sample--Озвучивание: DeadSno & den904 (спасибо!)
Перевод на русский язык: Honey&Haseena (спасибо!)
-Спасибочки большое АЙГЕРИМ МАРАТОВОЙ за спонсирование озвучки!-- -
-
Скриншот с названием:
-
Скриншоты:
-
MI
Общее
Полное имя : W:\[Релизы]\Ya.2015.DVDRip.Xvid.Kolobok.Honey.Haseena\Ya.2015.DVDRip.Xvid.Kolobok.Honey.Haseena.avi
Формат : AVI
Формат/Информация : Audio Video Interleave
Размер файла : 1,41 Гбайт
Продолжительность : 2 ч. 50 м.
Общий поток : 1187 Кбит/сек
Программа кодирования : VirtualDubMod 1.5.10.3 | www.virtualdub-fr.org || (build 2550/release)
Библиотека кодирования : VirtualDubMod build 2550/release
Видео
Идентификатор : 0
Формат : MPEG-4 Visual
Профиль формата : Advanced Simple@L5
Параметр BVOP формата : 1
Параметр QPel формата : Нет
Параметр GMC формата : Без точки перехода
Параметр матрицы формата : Default (H.263)
Идентификатор кодека : XVID
Идентификатор кодека/Подсказка : XviD
Продолжительность : 2 ч. 50 м.
Битрейт : 985 Кбит/сек
Ширина : 672 пикселя
Высота : 288 пикселей
Соотношение сторон : 2,35:1
Частота кадров : 25,000 кадров/сек
Цветовое пространство : YUV
Субдискретизация насыщенности : 4:2:0
Битовая глубина : 8 бит
Тип развёртки : Прогрессивная
Метод сжатия : С потерями
Бит/(Пиксели*Кадры) : 0.204
Размер потока : 1,17 Гбайт (83%)
Библиотека кодирования : XviD 1.2.1 (UTC 2008-12-04)
Аудио
Идентификатор : 1
Формат : AC-3
Формат/Информация : Audio Coding 3
Расширение режима : CM (complete main)
Параметр Endianness формата : Big
Идентификатор кодека : 2000
Продолжительность : 2 ч. 50 м.
Вид битрейта : Постоянный
Битрейт : 192 Кбит/сек
Каналы : 2 канала
Расположение каналов : Front: L R
Частота : 48,0 КГц
Битовая глубина : 16 бит
Метод сжатия : С потерями
Размер потока : 234 Мбайт (16%)
Выравнивание : Разделение по промежуткам
Продолжительность промежутка : 40 мс. (1,00 видеокадр)
Время предзагрузки промежутка : 500 мс.
-
Скачать

Скачать торрент! Я / I (С. Шанкар / S. Shankar) [2015, Индия, Боевик, фантастика, фэнтези, триллер, DVDRip] DVO (DeadSno & den904) + Sub Rus (песни)

Как скачивать? · Что такое торрент? · Рейтинг и ограничения

Сайт не распространяет и не хранит электронные версии произведений, а лишь предоставляет доступ к создаваемому пользователями каталогу ссылок на торрент-файлы, которые содержат только списки хеш-сумм

[Профиль] [ЛС]
Показать сообщения:    
Ответить на тему

Текущее время: Сегодня 15:26

Часовой пояс: GMT + 4



Вы не можете начинать темы
Вы не можете отвечать на сообщения
Вы не можете редактировать свои сообщения
Вы не можете удалять свои сообщения
Вы не можете голосовать в опросах
Вы не можете прикреплять файлы к сообщениям
Вы не можете скачивать файлы