Бывшие / Ex / Chin do (Хэйвард Мак / Heiward Mak) [2010, Китай, мелодрама, романтика, DVDRip] VO + Original Chi

Ответить на тему
 
Автор Сообщение

user ®

Стаж: 13 лет

Сообщений: 15071

Пост Пост: #1 от 27-Фев-2015 11:21

[Цитировать]

Бывшие / Ex
Страна: Китай
Жанр: Мелодрама, романтика
Год выпуска: 2010
Продолжительность: 01:36:22
Перевод: Одноголосый закадровый (FassaD)
Cубтитры: Нет
Оригинальная аудиодорожка: Китайская
Режиссер: Хэйвард Мак
В ролях: Гиллиан Чун, Уильям Чан Вэй-Тин, Мишель Вэй, Лоуренс Чоу, Джеки Хеунг, Эман Лам,Дип Нг,Чэпман То и др.
Описание: Разбитая посуда, разбитое сердце. "Давай расстанемся! И никаких "останемся друзьями!
Но что можно поделать, если встречая любимую в прошлом половинку, чувства вспыхивают вновь? Что, если воспоминания захлестывают вас, а сердце сжимается от боли?..
Чжоу И не верит в дружбу после разрыва, но оставшись одна в мегаполисе, вынуждена жить с бывшим и его девушкой...
Пин не верит в дружбу после разрыва. Но приютив Чжоу И на пару дней он чувствует, что забыть старую любовь труднее, чем он думал...
Как же повернется их история? Есть ли дружба между бывшими? Или это просто любовь, которую так сложно забыть?
Тип релиза: DVDRip
Контейнер: MKV
Видео: h264, 8 bit 720x400, 1649 kbps, 23,976 fps
Аудио: AC3, 48 000 Hz, 2 ch, 192 Kbps Язык Русский (в составе контейнера)
Аудио 2: AC3, 48 000 Hz, 2 ch, 384 kbps Язык Китайский
Sample MediaInfo
Общее
Уникальный идентификатор : 182919034188904034411845334361711481553 (0x899CECAE4751D9D89913F512410A92D1)
Полное имя : F:\FIFA 08\04 - Полномежки\2013\03 - Ex (2010)\Озвученно\DVDRip\[FanDub]_Ex_[480p_h264]_[FassaD].mkv
Формат : Matroska
Версия формата : Version 4 / Version 2
Размер файла : 1,50 Гбайт
Продолжительность : 1 ч. 36 м.
Общий поток : 2227 Кбит/сек
Дата кодирования : UTC 2015-02-02 09:18:01
Программа кодирования : mkvmerge v6.1.0 ('Old Devil') built on Mar 4 2013 09:10:42
Библиотека кодирования : libebml v1.3.0 + libmatroska v1.4.0
Видео
Идентификатор : 1
Формат : AVC
Формат/Информация : Advanced Video Codec
Профиль формата : High@L3.0
Параметр CABAC формата : Да
Параметр ReFrames формата : 4 кадра
Идентификатор кодека : V_MPEG4/ISO/AVC
Продолжительность : 1 ч. 36 м.
Битрейт : 1649 Кбит/сек
Ширина : 720 пикселей
Высота : 400 пикселей
Соотношение сторон : 16:9
Режим частоты кадров : Постоянный
Частота кадров : 23,976 кадра/сек
Цветовое пространство : YUV
Субдискретизация насыщенности : 4:2:0
Битовая глубина : 8 бит
Тип развёртки : Прогрессивная
Бит/(Пиксели*Кадры) : 0.239
Размер потока : 1,08 Гбайт (72%)
Библиотека кодирования : x264 core 112 r1867 22bfd31
Настройки программы : cabac=1 / ref=3 / deblock=1:0:0 / analyse=0x3:0x113 / me=hex / subme=7 / psy=1 / psy_rd=1.00:0.00 / mixed_ref=1 / me_range=16 / chroma_me=1 / trellis=1 / 8x8dct=1 / cqm=0 / deadzone=21,11 / fast_pskip=1 / chroma_qp_offset=-2 / threads=3 / sliced_threads=0 / nr=0 / decimate=1 / interlaced=0 / constrained_intra=0 / bframes=3 / b_pyramid=2 / b_adapt=1 / b_bias=0 / direct=1 / weightb=1 / open_gop=0 / weightp=2 / keyint=250 / keyint_min=23 / scenecut=40 / intra_refresh=0 / rc_lookahead=40 / rc=2pass / mbtree=1 / bitrate=1649 / ratetol=1.0 / qcomp=0.60 / qpmin=0 / qpmax=51 / qpstep=4 / cplxblur=20.0 / qblur=0.5 / ip_ratio=1.40 / aq=1:1.00
Язык : English
Default : Да
Forced : Нет
Аудио #1
Идентификатор : 2
Формат : AC-3
Формат/Информация : Audio Coding 3
Расширение режима : CM (complete main)
Параметр Endianness формата : Big
Идентификатор кодека : A_AC3
Продолжительность : 1 ч. 36 м.
Вид битрейта : Постоянный
Битрейт : 192 Кбит/сек
Каналы : 2 канала
Расположение каналов : Front: L R
Частота : 48,0 КГц
Битовая глубина : 16 бит
Метод сжатия : С потерями
Размер потока : 132 Мбайт (9%)
Default : Да
Forced : Нет
Аудио #2
Идентификатор : 3
Формат : AC-3
Формат/Информация : Audio Coding 3
Расширение режима : CM (complete main)
Параметр Endianness формата : Big
Идентификатор кодека : A_AC3
Продолжительность : 1 ч. 36 м.
Вид битрейта : Постоянный
Битрейт : 384 Кбит/сек
Каналы : 2 канала
Расположение каналов : Front: L R
Частота : 48,0 КГц
Битовая глубина : 16 бит
Метод сжатия : С потерями
Размер потока : 265 Мбайт (17%)
Default : Нет
Forced : Нет
Скриншоты
Скачать

Скачать торрент! Бывшие / Ex / Chin do (Хэйвард Мак / Heiward Mak) [2010, Китай, мелодрама, романтика, DVDRip] VO + Original Chi

Как скачивать? · Что такое торрент? · Рейтинг и ограничения

Сайт не распространяет и не хранит электронные версии произведений, а лишь предоставляет доступ к создаваемому пользователями каталогу ссылок на торрент-файлы, которые содержат только списки хеш-сумм

[Профиль] [ЛС]
Показать сообщения:    
Ответить на тему

Текущее время: Сегодня 21:10

Часовой пояс: GMT + 4



Вы не можете начинать темы
Вы не можете отвечать на сообщения
Вы не можете редактировать свои сообщения
Вы не можете удалять свои сообщения
Вы не можете голосовать в опросах
Вы не можете прикреплять файлы к сообщениям
Вы не можете скачивать файлы