Боец с шестом / Клан копьеносцев / Восемь копьеносцев / The Eight Diagram Pole Fighter / Wu Lang ba gua gun (Лю Чя-Лян / Chia-Liang Liu) [1984, Гонконг, боевик, драма, HDRip] AVO (С. Кузнецов)

Ответить на тему
 
Автор Сообщение

user ®

Стаж: 13 лет

Сообщений: 15071

Пост Пост: #1 от 24-Фев-2015 14:03

[Цитировать]

Боец с шестом / Клан копьеносцев / Восемь копьеносцев / The Eight Diagram Pole Fighter / Wu Lang ba gua gun
Страна: Гонконг
Жанр: боевик, драма
Год выпуска: 1984
Продолжительность:01:37:33
Перевод: Авторский (одноголосый закадровый) [Кузнецов]
Оригинальная аудиодорожка: нет
Cубтитры: нет
Режиссер:Лю Чя-Лян / Chia-Liang Liu
В ролях: Цзя-Хуэй Лю, Шенг Фу, Лили Лай, Кара Хуи, Чинг-Чинг Юн, Ланг Вэй Ванг, Чан-Пэн Чжан, Юн-чжэн Чанг, Тиэт Во Чу
Описание: Шестеро братьев Янг и их отец — уважаемые генералы, но их подставляет мстительный генерал Пан Мей и в суровой битве погибают все мужчины семьи, кроме двоих. Один из них возвращается домой и сходит с ума, второй обривается в монахи, однако не оставляет надежды когда-нибудь отомстить за погибших братьев и отца.
Релиз:
Сэмпл
Качество: НDRip
Контейнер: AVI
Видео: 720x304 (2.37:1), 23.976 fps, XviD build 73 ~1954 kbps avg, 0.37 bit/pixel
Аудио: 48 kHz, AC3 Dolby Digital, 2/0 (L,R) ch, ~192 kbps

MI
Общее
Полное имя : C:\Users\Пользователь\Downloads\Боец_с_шестом_НDRip_1460_Некул.avi
Формат : AVI
Формат/Информация : Audio Video Interleave
Профиль формата : OpenDML
Размер файла : 1,47 Гбайт
Продолжительность : 1 ч. 37 м.
Общий поток : 2153 Кбит/сек
Дата записи : -1
Программа кодирования : XviD4PSP 7.0 / 55.48.100
Примечание : MATROSKA,WEBM > AVI / H264 > XVID CBR 1960kbps HQ / AC3 > COPY
Видео
Идентификатор : 0
Формат : MPEG-4 Visual
Профиль формата : Advanced Simple@L5
Параметр BVOP формата : 2
Параметр QPel формата : Нет
Параметр GMC формата : Без точки перехода
Параметр матрицы формата : Default (H.263)
Идентификатор кодека : XVID
Идентификатор кодека/Подсказка : XviD
Продолжительность : 1 ч. 37 м.
Битрейт : 1949 Кбит/сек
Ширина : 720 пикселей
Высота : 304 пикселя
Соотношение сторон : 2,35:1
Частота кадров : 23,976 кадра/сек
Цветовое пространство : YUV
Субдискретизация насыщенности : 4:2:0
Битовая глубина : 8 бит
Тип развёртки : Прогрессивная
Метод сжатия : С потерями
Бит/(Пиксели*Кадры) : 0.371
Размер потока : 1,33 Гбайт (91%)
Заголовок : MPEG-4AVC@High Profile L4.1, 24/1.001 fps @ 6300 kbps
Библиотека кодирования : XviD 73
Аудио
Идентификатор : 1
Формат : AC-3
Формат/Информация : Audio Coding 3
Расширение режима : CM (complete main)
Параметр Endianness формата : Big
Идентификатор кодека : 2000
Продолжительность : 1 ч. 37 м.
Вид битрейта : Постоянный
Битрейт : 192 Кбит/сек
Каналы : 2 канала
Расположение каналов : Front: L R
Частота : 48,0 КГц
Битовая глубина : 16 бит
Метод сжатия : С потерями
Размер потока : 134 Мбайт (9%)
Выравнивание : Соединение по промежуткам
Продолжительность промежутка : 32 мс. (0,77 видеокадр)
Заголовок : AVO (РЎ. Кузнецов)
Скриншоты
Скачать

Скачать торрент! Боец с шестом / Клан копьеносцев / Восемь копьеносцев / The Eight Diagram Pole Fighter / Wu Lang ba gua gun (Лю Чя-Лян / Chia-Liang Liu) [1984, Гонконг, боевик, драма, HDRip] AVO (С. Кузнецов)

Как скачивать? · Что такое торрент? · Рейтинг и ограничения

Сайт не распространяет и не хранит электронные версии произведений, а лишь предоставляет доступ к создаваемому пользователями каталогу ссылок на торрент-файлы, которые содержат только списки хеш-сумм

[Профиль] [ЛС]
Показать сообщения:    
Ответить на тему

Текущее время: Сегодня 20:12

Часовой пояс: GMT + 4



Вы не можете начинать темы
Вы не можете отвечать на сообщения
Вы не можете редактировать свои сообщения
Вы не можете удалять свои сообщения
Вы не можете голосовать в опросах
Вы не можете прикреплять файлы к сообщениям
Вы не можете скачивать файлы