То же / Donggam / Ditto (Джанг Квон Ким / Jeong-kwon Kim) [2000, Южная Корея, Романтическая драма, фантастика, HDTVRip] DVO

Ответить на тему
 
Автор Сообщение

user ®

Стаж: 13 лет

Сообщений: 15071

Пост Пост: #1 от 19-Фев-2015 10:51

[Цитировать]

То же / Donggam / Ditto
Страна: Южная Корея
Жанр: Pомантическая драма, фантастика
Год выпуска: 2000
Продолжительность: 01:49:00
Перевод: Любительский (двухголосый закадровый) [pandora2177] и [den904]
Оригинальная аудиодорожка: нет
Cубтитры: нет
Режиссер: Джанг Квон Ким / Jeong-kwon Kim
В ролях: Ю Чжи Тхэ, Ким Ха Ныль, Ха Джи Вон
Описание:Однажды, в ночь лунного затмения, настраивая сломанное любительское радио, студентка Ён Со находит волну, на которой слышит позывные, повторяемые приятным юношеским голосом. Набравшись смелости, она отвечает на призыв и знакомится с парнем по имени Джи Ин. Они обнаруживают, что посещают один и тот же университет, и решают встретиться на следующий день. Однако, не смотря на то, что оба приходят вовремя, они так и не встречают друг друга. Рассерженные, они снова связываются по радио, но вот что странно: он утверждает, что живет в 2000 году, а она - в 1979-м! Поначалу он не верят в это, но постепенно все же убеждаются, что радио связало их не через пространство, а сквозь время. Продолжая общаться, они понимают, что нашли друг в друге родственные души, но вскоре крутой поворот судьбы изменяет их жизни...

Релиз:

Качество: HDTVRip
Контейнер: AVI
Видео: 688x384 (1.79:1), 23.976 fps, XviD build 50 ~946 kbps avg, 0.15 bit/pixel
Аудио: 48 kHz, MPEG Layer 3, 2 ch, ~128.00 kbps avg

MI
Общее
Полное имя : C:\Users\Пользователь\Downloads\Dongga_ 745_HDRip_Некул.avi
Формат : AVI
Формат/Информация : Audio Video Interleave
Размер файла : 741 Мбайт
Продолжительность : 1 ч. 49 м.
Общий поток : 951 Кбит/сек
Программа кодирования : VirtualDubMod 1.5.10.3 | www.virtualdub-fr.org || (build 2550/release)
Библиотека кодирования : VirtualDubMod build 2550/release
Видео
Идентификатор : 0
Формат : MPEG-4 Visual
Профиль формата : Advanced Simple@L5
Параметр BVOP формата : 2
Параметр QPel формата : Нет
Параметр GMC формата : Без точки перехода
Параметр матрицы формата : Default (MPEG)
Идентификатор кодека : XVID
Идентификатор кодека/Подсказка : XviD
Продолжительность : 1 ч. 49 м.
Битрейт : 946 Кбит/сек
Ширина : 688 пикселей
Высота : 384 пикселя
Соотношение сторон : 16:9
Частота кадров : 23,976 кадра/сек
Цветовое пространство : YUV
Субдискретизация насыщенности : 4:2:0
Битовая глубина : 8 бит
Тип развёртки : Прогрессивная
Метод сжатия : С потерями
Бит/(Пиксели*Кадры) : 0.149
Размер потока : 738 Мбайт (100%)
Библиотека кодирования : XviD 1.2.1 (UTC 2008-12-04)
Аудио
Идентификатор : 1
Формат : MPEG Audio
Версия формата : Version 1
Профиль формата : Layer 3
Идентификатор кодека : 55
Идентификатор кодека/Подсказка : MP3
Продолжительность : 768 мс.
Вид битрейта : Постоянный
Битрейт : 128 Кбит/сек
Каналы : 2 канала
Частота : 48,0 КГц
Метод сжатия : С потерями
Размер потока : 12,0 Кбайт (0%)
Выравнивание : Соединение по промежуткам
Продолжительность промежутка : 934423 мс. (22403,71 видеокадра)
Время предзагрузки промежутка : 504 мс.
Скриншоты
Скачать

Скачать торрент! То же / Donggam / Ditto (Джанг Квон Ким / Jeong-kwon Kim) [2000, Южная Корея, Романтическая драма, фантастика, HDTVRip] DVO

Как скачивать? · Что такое торрент? · Рейтинг и ограничения

Сайт не распространяет и не хранит электронные версии произведений, а лишь предоставляет доступ к создаваемому пользователями каталогу ссылок на торрент-файлы, которые содержат только списки хеш-сумм

[Профиль] [ЛС]
Показать сообщения:    
Ответить на тему

Текущее время: Сегодня 15:12

Часовой пояс: GMT + 4



Вы не можете начинать темы
Вы не можете отвечать на сообщения
Вы не можете редактировать свои сообщения
Вы не можете удалять свои сообщения
Вы не можете голосовать в опросах
Вы не можете прикреплять файлы к сообщениям
Вы не можете скачивать файлы