Инцидент Синдзюку / Инцидент Шиндзюку / San suk si gin / Shinjuku Incident (Тун-Шин Йи / Tung-Shing Yee) [2009, Гонконг, триллер, драма, криминал, BDRip-AVC] AVO (Юрий Сербин) + Original (Chinese) + Subs (Rus, Eng)

Ответить на тему
 
Автор Сообщение

user ®

Стаж: 13 лет

Сообщений: 15071

Пост Пост: #1 от 19-Фев-2015 00:39

[Цитировать]

Инцидент Синдзюку / Инцидент Шиндзюку / San suk si gin / Shinjuku Incident
«They destroyed his life... Now he'll destroy them all»
- Страна: Гонконг
Жанр: триллер, драма, криминал
Год выпуска: 2009
Продолжительность: 01:59:12-Перевод: Авторский (одноголосый закадровый) - Юрий Сербин
Оригинальная аудиодорожка: Chinese
Cубтитры: Русские (полные - MiTrIcHoJiSaN), English (full)
Навигация по главам: присутствует - 20 глав-Режиссер: Тун-Шин Йи / Tung-Shing Yee
В ролях: Джеки Чан, Наото Такэнака, Дэниэл Ву, Сюй Цзинлэй, Масая Като, Тору Минегиши, Джек Као, Кеня Савада, Хироюки Нагато, Ясуаки Курата-Описание: Стальная Голова (Джеки Чан) приехал из Китая в Японию в поисках своей пропавшей невесты Сю Сю (Сю Цзинлей). Та уехала на поиски счастья много лет назад, да так и не вернулась. В Японии Голова находит других нелегальных эмигрантов, которые дают ему кров и помогают с работой. А в конце концов находится и Сю Сю, она замужем за местным гангстером Егучи (Масайя Като). Волею судеб Голова помогает Егучи спастись от убийц, и тот, в свою очередь, тоже протягивает китайцу руку помощи.-
Download sample-Качество видео: BDRip-AVC | исх. Blu-ray disc - thx: tymoxa
Формат: MKV-Видео: 1 120x476 (2.35:1), 24.000 fps, H.264 ~4 400 kbps avg, 0.337 bit/pixel
Аудио №1: 48.0 kHz, AC3 Dolby Digital, 3/2 (L,C,R,l,r) + LFE ch, ~448 kbps | Авторский (одноголосый закадровый) - Юрий Сербин
Аудио №2: 48.0 kHz, AC3 Dolby Digital, 3/2 (L,C,R,l,r) + LFE ch, ~448 kbps | Chinese
Субтитры №1: Русские (полные - MiTrIcHoJiSaN) | *.srt
Субтитры №2: English (full) | *.srt-

MediaInfo
General
Unique ID : 181335540317996076125364339721148475812 (0x886BF467BE723DB8818EBBF947F2A9A4)
Complete name : D:\Фильмы\Рипы\San suk si gin.2009.BDRip-AVC.eFK tRuAVC.mkv
Format : Matroska
Format version : Version 4 / Version 2
File size : 4.42 GiB
Duration : 1h 59mn
Overall bit rate : 5 311 Kbps
Movie name : Инцидент Синдзюку / San suk si gin / Shinjuku Incident (2009) - Release for rutracker
Encoded date : UTC 2015-02-18 19:04:05
Writing application : mkvmerge v7.6.0 ('Garden of Dreams') 64bit built on Feb 8 2015 13:04:34
Writing library : libebml v1.3.1 + libmatroska v1.4.2
Attachements : cover.png
DURATION : 01:59:12.736000000
NUMBER_OF_FRAMES : 223523
NUMBER_OF_BYTES : 400553216
_STATISTICS_WRITING_APP : mkvmerge v7.6.0 ('Garden of Dreams') 64bit built on Feb 8 2015 13:04:34
_STATISTICS_WRITING_DATE_UT : 2015-02-18 19:04:05
_STATISTICS_TAGS : BPS DURATION NUMBER_OF_FRAMES NUMBER_OF_BYTES
Video
ID : 1
Format : AVC
Format/Info : Advanced Video Codec
Format profile : High@L4.1
Format settings, CABAC : Yes
Format settings, ReFrames : 14 frames
Codec ID : V_MPEG4/ISO/AVC
Duration : 1h 59mn
Bit rate : 4 310 Kbps
Width : 1 120 pixels
Height : 476 pixels
Display aspect ratio : 2.35:1
Frame rate mode : Constant
Frame rate : 24.000 fps
Color space : YUV
Chroma subsampling : 4:2:0
Bit depth : 8 bits
Scan type : Progressive
Bits/(Pixel*Frame) : 0.337
Stream size : 3.59 GiB (81%)
Title : eFK tRuAVC
Writing library : x264 core 144 r2525kMod 40bb568
Encoding settings : cabac=1 / ref=14 / deblock=1:-3:-3 / analyse=0x3:0x133 / me=umh / subme=11 / psy=1 / fade_compensate=0.00 / psy_rd=1.10:0.05 / mixed_ref=1 / me_range=32 / chroma_me=1 / trellis=2 / 8x8dct=1 / cqm=0 / deadzone=21,11 / fast_pskip=0 / chroma_qp_offset=-3 / threads=12 / lookahead_threads=3 / sliced_threads=0 / nr=0 / decimate=1 / interlaced=0 / bluray_compat=0 / constrained_intra=0 / fgo=0 / bframes=16 / b_pyramid=2 / b_adapt=2 / b_bias=0 / direct=3 / weightb=1 / open_gop=0 / weightp=2 / keyint=250 / keyint_min=24 / scenecut=40 / intra_refresh=0 / rc_lookahead=60 / rc=crf / mbtree=0 / crf=18.6500 / qcomp=0.70 / qpmin=0 / qpmax=69 / qpstep=4 / vbv_maxrate=50000 / vbv_bufsize=62500 / crf_max=0.0 / nal_hrd=none / filler=0 / ip_ratio=1.40 / pb_ratio=1.30 / aq=3:0.75
Language : English
Default : Yes
Forced : No
Color primaries : BT.709
Transfer characteristics : BT.709
Matrix coefficients : BT.709
Color range : Limited
DURATION : 01:59:12.709000000
NUMBER_OF_FRAMES : 171665
NUMBER_OF_BYTES : 3945056531
_STATISTICS_WRITING_APP : mkvmerge v7.6.0 ('Garden of Dreams') 64bit built on Feb 8 2015 13:04:34
_STATISTICS_WRITING_DATE_UT : 2015-02-18 19:04:05
_STATISTICS_TAGS : BPS DURATION NUMBER_OF_FRAMES NUMBER_OF_BYTES
Audio #1
ID : 2
Format : AC-3
Format/Info : Audio Coding 3
Mode extension : CM (complete main)
Format settings, Endianness : Big
Codec ID : A_AC3
Duration : 1h 59mn
Bit rate mode : Constant
Bit rate : 448 Kbps
Channel(s) : 6 channels
Channel positions : Front: L C R, Side: L R, LFE
Sampling rate : 48.0 KHz
Bit depth : 16 bits
Compression mode : Lossy
Stream size : 382 MiB (8%)
Title : AVO (Юрий Сербин)
Language : Russian
Default : Yes
Forced : No
Audio #2
ID : 3
Format : AC-3
Format/Info : Audio Coding 3
Mode extension : CM (complete main)
Format settings, Endianness : Big
Codec ID : A_AC3
Duration : 1h 59mn
Bit rate mode : Constant
Bit rate : 448 Kbps
Channel(s) : 6 channels
Channel positions : Front: L C R, Side: L R, LFE
Sampling rate : 48.0 KHz
Bit depth : 16 bits
Compression mode : Lossy
Stream size : 382 MiB (8%)
Language : Chinese
Default : No
Forced : No
Text #1
ID : 4
Format : UTF-8
Codec ID : S_TEXT/UTF8
Codec ID/Info : UTF-8 Plain Text
Title : Русские (полные - MiTrIcHoJiSaN)
Language : Russian
Default : No
Forced : No
Text #2
ID : 5
Format : UTF-8
Codec ID : S_TEXT/UTF8
Codec ID/Info : UTF-8 Plain Text
Title : full
Language : English
Default : No
Forced : No
Menu
00:00:00.000 : :Chapter 01
00:06:20.208 : :Chapter 02
00:11:55.958 : :Chapter 03
00:17:51.333 : :Chapter 04
00:22:28.125 : :Chapter 05
00:29:29.583 : :Chapter 06
00:34:21.583 : :Chapter 07
00:41:57.541 : :Chapter 08
00:47:46.458 : :Chapter 09
00:54:22.541 : :Chapter 10
01:00:44.875 : :Chapter 11
01:06:20.916 : :Chapter 12
01:13:12.458 : :Chapter 13
01:17:12.250 : :Chapter 14
01:23:25.166 : :Chapter 15
01:30:28.333 : :Chapter 16
01:36:00.583 : :Chapter 17
01:41:07.166 : :Chapter 18
01:48:48.958 : :Chapter 19
01:51:44.416 : :Chapter 20
x264 log
x264 [info]: frame I:1221 Avg QP:17.40 size: 90557
x264 [info]: frame P:38585 Avg QP:18.99 size: 41168
x264 [info]: frame B:131859 Avg QP:21.74 size: 17033
x264 [info]: consecutive B-frames: 1.8% 2.9% 10.1% 22.9% 19.1% 38.0% 3.2% 0.5% 0.4% 0.3% 0.2% 0.0% 0.0% 0.1% 0.0% 0.1% 0.2%
x264 [info]: mb I I16..4: 5.1% 74.3% 20.7%
x264 [info]: mb P I16..4: 0.5% 16.0% 1.9% P16..4: 27.9% 34.8% 14.0% 2.3% 0.2% skip: 2.4%
x264 [info]: mb B I16..4: 0.0% 2.9% 0.2% B16..8: 38.8% 21.8% 4.4% direct: 7.3% skip:24.5% L0:41.2% L1:45.1% BI:13.7%
x264 [info]: 8x8 transform intra:87.5% inter:56.3%
x264 [info]: direct mvs spatial:100.0% temporal:0.0%
x264 [info]: coded y,uvDC,uvAC intra: 95.6% 95.3% 87.4% inter: 34.7% 32.8% 12.6%
x264 [info]: i16 v,h,dc,p: 46% 14% 8% 32%
x264 [info]: i8 v,h,dc,ddl,ddr,vr,hd,vl,hu: 8% 7% 12% 10% 13% 12% 13% 11% 13%
x264 [info]: i4 v,h,dc,ddl,ddr,vr,hd,vl,hu: 10% 7% 5% 10% 15% 14% 14% 12% 13%
x264 [info]: i8c dc,h,v,p: 51% 16% 13% 20%
x264 [info]: Weighted P-Frames: Y:3.6% UV:2.6%
x264 [info]: ref P L0: 44.4% 10.4% 17.9% 6.2% 5.2% 3.5% 3.2% 1.7% 1.6% 1.3% 1.3% 1.0% 1.1% 1.0% 0.2% 0.0%
x264 [info]: ref B L0: 77.0% 10.3% 4.3% 2.2% 1.5% 1.3% 1.0% 0.6% 0.5% 0.5% 0.4% 0.3% 0.1%
x264 [info]: ref B L1: 93.9% 6.1%
x264 [info]: kb/s:4412.38
x264 [total]: encoded 171665 frames, 7.74 fps, 4412.38 kb/s, duration 6:09:40.01
Screenshots Comparison
Source

Encode
Скачать

Скачать торрент! Инцидент Синдзюку / Инцидент Шиндзюку / San suk si gin / Shinjuku Incident (Тун-Шин Йи / Tung-Shing Yee) [2009, Гонконг, триллер, драма, криминал, BDRip-AVC] AVO (Юрий Сербин) + Original (Chinese) + Subs (Rus, Eng)

Как скачивать? · Что такое торрент? · Рейтинг и ограничения

Сайт не распространяет и не хранит электронные версии произведений, а лишь предоставляет доступ к создаваемому пользователями каталогу ссылок на торрент-файлы, которые содержат только списки хеш-сумм

[Профиль] [ЛС]
Показать сообщения:    
Ответить на тему

Текущее время: Сегодня 20:53

Часовой пояс: GMT + 4



Вы не можете начинать темы
Вы не можете отвечать на сообщения
Вы не можете редактировать свои сообщения
Вы не можете удалять свои сообщения
Вы не можете голосовать в опросах
Вы не можете прикреплять файлы к сообщениям
Вы не можете скачивать файлы