Резвый конь / Обгоняя ветер / Race Gurram (Сурендер Редди / Surender Reddy) [2014, Индия, Боевик, комедия, WEB-DLRip] DVO (DeadSno & den904) + Sub Rus (песни)

Ответить на тему
 
Автор Сообщение

user ®

Стаж: 12 лет

Сообщений: 15092

Пост Пост: #1 от 13-Фев-2015 10:30

[Цитировать]

Резвый конь / Race Gurram
-Страна: Индия
Жанр: Боевик, комедия
Год выпуска: 2014
Продолжительность: 02:39:59--Перевод: Любительский (двухголосый закадровый) - DeadSno & den904
Субтитры: Есть (только песни)
Перевод и редакция: Honey&Haseena--Режиссер: Сурендер Редди / Surender Reddy-В ролях: Аллу Арджун, Шаам, Шрути Хассан, Пракаш Радж, Таникелла Бхарани, Брахманандам--Описание: Лаки и Рам – два брата - абсолютные противоположности друг другу. Рам привык жить честно и свою жизнь посвятил служению Родине, вступив в ряды полиции. А Лаки – бездельник, который прожигает жизнь и привык жить на всё готовое. Стычки интересов братьев происходят ежедневно и их родители, обеспокоенные не на шутку их враждой, молятся, чтобы однажды они зажили в полной гармонии, как Рама и Лакшмана из эпоса «Рамаяна». Тем временем, в штате появляется бандит по имени Шива Редди, сын кровожадного политика Педди Редди. По воле случая, Лаки оказывается замешан в разборки с Шивой. Тут начинается проверка настоящих братских чувств Рама(c) Honey- --Качество видео: WEB-DLRip
Формат видео: AVI-Видео: 688x288 (2.39:1), 25 fps, XviD build 50 ~1167 kbps avg, 0.23 bit/pixel
Аудио: 48 kHz, MPEG Layer 3, 2 ch, ~128.00 kbps
Формат субтитров: hardsub (неотключаемые, вшитые в картинку)--Сэмпл / Sample--Озвучивание: DeadSno & den904 (спасибо!)
Перевод на русский язык: Honey&Haseena (спасибо!)
Риппер: soso4eg-Большое спасибо Mr. Khan за спонсирование перевода и озвучки.-- -
-
Скриншот с названием:
-
Скриншоты:
-
MI
Общее
Полное имя : D:\Rezvyi.Kon.2014.WEB-DLRip.XviD.Kolobok-soso4eg.avi
Формат : AVI
Формат/Информация : Audio Video Interleave
Размер файла : 1,46 Гбайт
Продолжительность : 2 ч. 39 м.
Общий поток : 1306 Кбит/сек
Название фильма : Race.Gurram.2014.WEB-DLRip.XviD.Kolobok-soso4eg
Режиссёр : soso4eg
Программа кодирования : VirtualDubMod 1.5.10.3 | www.virtualdub-fr.org || (build 2550/release)
Формат оригинала/Имя : Telugu
Правообладатель : специально для BitTorrent трекер *** (ex torrents.ru)
Примечание : пер. DeadSno & den904 по суб. Honey&Haseena
Видео
Идентификатор : 0
Формат : MPEG-4 Visual
Профиль формата : Advanced Simple@L5
Параметр BVOP формата : 2
Параметр QPel формата : Нет
Параметр GMC формата : Без точки перехода
Параметр матрицы формата : Default (MPEG)
Идентификатор кодека : XVID
Идентификатор кодека/Подсказка : XviD
Продолжительность : 2 ч. 39 м.
Битрейт : 1168 Кбит/сек
Ширина : 688 пикселей
Высота : 288 пикселей
Соотношение сторон : 2,40:1
Частота кадров : 25,000 кадров/сек
Цветовое пространство : YUV
Субдискретизация насыщенности : 4:2:0
Битовая глубина : 8 бит
Тип развёртки : Прогрессивная
Метод сжатия : С потерями
Бит/(Пиксели*Кадры) : 0.236
Размер потока : 1,31 Гбайт (89%)
Библиотека кодирования : XviD 1.2.1 (UTC 2008-12-04)
Аудио
Идентификатор : 1
Формат : MPEG Audio
Версия формата : Version 1
Профиль формата : Layer 3
Идентификатор кодека : 55
Идентификатор кодека/Подсказка : MP3
Продолжительность : 2 ч. 39 м.
Вид битрейта : Постоянный
Битрейт : 128 Кбит/сек
Каналы : 2 канала
Частота : 48,0 КГц
Метод сжатия : С потерями
Размер потока : 146 Мбайт (10%)
Выравнивание : Соединение по промежуткам
Продолжительность промежутка : 40 мс. (1,00 видеокадр)
Время предзагрузки промежутка : 504 мс.
Библиотека кодирования : LAME3.99r
Настройки программы : -m s -V 4 -q 2 -lowpass 17 -b 128
-
Скачать

Скачать торрент! Резвый конь / Обгоняя ветер / Race Gurram (Сурендер Редди / Surender Reddy) [2014, Индия, Боевик, комедия, WEB-DLRip] DVO (DeadSno & den904) + Sub Rus (песни)

Как скачивать? · Что такое торрент? · Рейтинг и ограничения

Сайт не распространяет и не хранит электронные версии произведений, а лишь предоставляет доступ к создаваемому пользователями каталогу ссылок на торрент-файлы, которые содержат только списки хеш-сумм

[Профиль] [ЛС]
Показать сообщения:    
Ответить на тему

Текущее время: Сегодня 14:29

Часовой пояс: GMT + 4



Вы не можете начинать темы
Вы не можете отвечать на сообщения
Вы не можете редактировать свои сообщения
Вы не можете удалять свои сообщения
Вы не можете голосовать в опросах
Вы не можете прикреплять файлы к сообщениям
Вы не можете скачивать файлы