Кунг Фу Вин Чунь / Kung Fu Wing Chun / Gong Fu Yong Chun (Джо Чун Тун Чо / Joe Cheung Tung-Cho) [2010, Китай, боевые искусства, комедия, HDTVRip] VO (zamez)

Ответить на тему
 
Автор Сообщение

user ®

Стаж: 13 лет

Сообщений: 15071

Пост Пост: #1 от 09-Фев-2015 00:06

[Цитировать]

Кунг Фу Вин Чунь / Kung Fu Wing Chun / Gong Fu Yong Chun- -Страна: Китай
Жанр: боевые искусства, комедия
Год выпуска: 2010
Продолжительность: 01:48:38-Перевод: Любительский (одноголосый закадровый) [ zamez ]-Cубтитры: нет
Режиссер: Джо Чун Тун Чо / Joe Cheung Tung-Cho
В ролях: Бай Цзин, Юй Шаоцюнь, Нгай Син, Кара Хуэй, Юэнь Ва, Юэнь Цю, Сяо Цзянь, Дун Чи Ва, Ван Янь Су, Чоу Так Ва, Остин Вай Тинь Чи, Вон Яу Нам, Алан Нг Вин Лунь, Лю И Вэй, Элис Чань, Кун Линь, Энни Мань, Лам Цзэчун
Описание: Великий Шаолинь пал, монахи уничтожены и только пятерым удаётся спастись, но по их следу идут правительственные агенты. Монахиня Умэй находит убежище в Ляншане, где начинает обучать молодую девушки Вин Чунь. В жестоких поединках против недругов рождается новый стиль боевого кунг фу.
Релиз от -
Семпл: http://multi-up.com/1031901
Качество видео: HDTVRip
Формат видео: AVI
Видео: MPEG-4 Visual at 826 Кбит/сек; 688 x 288 (2.389) at 25.000 fps
Аудио: MPEG Audio at 128 Кбит/сек; 2 канала, 48,0 КГц
Автор -
MediaInfo
Общее
Полное имя : D:\Фильмы\Азиатские\Кунг Фу Вин Чунь\Kung Fu Wing Chun.2010.HDTVRip.XviD.745MB. rip by [Assassin's Creed].avi
Формат : AVI
Формат/Информация : Audio Video Interleave
Размер файла : 749 Мбайт
Продолжительность : 1 ч. 48 м.
Общий поток : 964 Кбит/сек
Программа кодирования : VirtualDubMod 1.5.10.3 | www.virtualdub-fr.org || (build 2550/release)
Библиотека кодирования : VirtualDubMod build 2550/release
Видео
Идентификатор : 0
Формат : MPEG-4 Visual
Профиль формата : Advanced Simple@L5
Параметр BVOP формата : 1
Параметр QPel формата : Нет
Параметр GMC формата : Без точки перехода
Параметр матрицы формата : Default (MPEG)
Идентификатор кодека : XVID
Идентификатор кодека/Подсказка : XviD
Продолжительность : 1 ч. 48 м.
Битрейт : 826 Кбит/сек
Ширина : 688 пикселей
Высота : 288 пикселей
Соотношение сторон : 2,40:1
Частота кадров : 25,000 кадров/сек
Цветовое пространство : YUV
Субдискретизация насыщенности : 4:2:0
Битовая глубина : 8 бит
Тип развёртки : Прогрессивная
Метод сжатия : С потерями
Бит/(Пиксели*Кадры) : 0.167
Размер потока : 642 Мбайт (86%)
Библиотека кодирования : XviD 1.2.1 (UTC 2008-12-04)
Аудио
Идентификатор : 1
Формат : MPEG Audio
Версия формата : Version 1
Профиль формата : Layer 3
Идентификатор кодека : 55
Идентификатор кодека/Подсказка : MP3
Продолжительность : 1 ч. 48 м.
Вид битрейта : Постоянный
Битрейт : 128 Кбит/сек
Каналы : 2 канала
Частота : 48,0 КГц
Метод сжатия : С потерями
Размер потока : 99,5 Мбайт (13%)
Выравнивание : Соединение по промежуткам
Продолжительность промежутка : 40 мс. (1,00 видеокадр)
Время предзагрузки промежутка : 504 мс.
Библиотека кодирования : LAME3.99r
Настройки программы : -m s -V 4 -q 2 -lowpass 17 -b 128
Скриншот c названием фильма Скриншоты
Скачать

Скачать торрент! Кунг Фу Вин Чунь / Kung Fu Wing Chun / Gong Fu Yong Chun (Джо Чун Тун Чо / Joe Cheung Tung-Cho) [2010, Китай, боевые искусства, комедия, HDTVRip] VO (zamez)

Как скачивать? · Что такое торрент? · Рейтинг и ограничения

Сайт не распространяет и не хранит электронные версии произведений, а лишь предоставляет доступ к создаваемому пользователями каталогу ссылок на торрент-файлы, которые содержат только списки хеш-сумм

[Профиль] [ЛС]
Показать сообщения:    
Ответить на тему

Текущее время: Сегодня 18:07

Часовой пояс: GMT + 4



Вы не можете начинать темы
Вы не можете отвечать на сообщения
Вы не можете редактировать свои сообщения
Вы не можете удалять свои сообщения
Вы не можете голосовать в опросах
Вы не можете прикреплять файлы к сообщениям
Вы не можете скачивать файлы