Лофт / Заброшенная лаборатория / Чердак / Loft / Rofuto (Киёси Куросава / Kiyoshi Kurosawa) [2005, Япония, Южная Корея, мистика, драма, ужасы, DVDRip] VO

Ответить на тему
 
Автор Сообщение

user ®

Стаж: 13 лет

Сообщений: 15071

Пост Пост: #1 от 07-Фев-2015 20:15

[Цитировать]

Лофт / Заброшенная лаборатория / Чердак / Loft / Rofuto- -Страна: Япония, Южная Корея
Жанр: мистика, драма, ужасы
Год выпуска: 2005
Продолжительность: 01:54:38-Перевод: Одноголосый закадровый-Cубтитры: нет
Оригинальная аудиодорожка: нет
Режиссер: Киёси Куросава / Kiyoshi Kurosawa
В ролях: Мики Накатани, Эцуси Тоёкава, Хидэтоси Нисидзима, Юми Адачи, Сава Сузуки, Харухико Като, Рен Осуги, Норико Егучи...
Описание: Известная писательница Лейко хочет закончить работу над книгой и переезжает в загородный дом. В первую же ночь она встречает в чулане человека, переносящего какой-то странный предмет, завернутый в ткань. Вскоре оказывается, что этот человек — знаменитый археолог, профессор Ёшиока, а странный предмет был только что найденной мумией.
Продолжая работу над книгой Лейко встречает призрака, и понимает, что номер, в котором она живет, некогда принадлежал давно покинувшей этот мир женщине. Необъяснимый страх охватывает Лейко тем сильнее, чем больше она узнает историй из прошлого.
Релиз от -
Сэмпл: http://multi-up.com/1031589
Качество видео: DVDRip
Формат видео: AVI
Видео: MPEG-4 Visual at 776 Кбит/сек; 640 x 480 (1.333) at 23.976 fps
Аудио: MPEG Audio at 128 Кбит/сек; 2 канала, 48,0 КГц
Автор -
MediaInfo
Общее
Полное имя : D:\Фильмы\Азиатские\Лофт\Loft.2005.DVDRip.XviD.745MB. rip by [Assassin's Creed].avi
Формат : AVI
Формат/Информация : Audio Video Interleave
Размер файла : 749 Мбайт
Продолжительность : 1 ч. 54 м.
Общий поток : 913 Кбит/сек
Программа кодирования : VirtualDubMod 1.5.10.3 | www.virtualdub-fr.org || (build 2550/release)
Библиотека кодирования : VirtualDubMod build 2550/release
Видео
Идентификатор : 0
Формат : MPEG-4 Visual
Профиль формата : Advanced Simple@L5
Параметр BVOP формата : 1
Параметр QPel формата : Нет
Параметр GMC формата : Без точки перехода
Параметр матрицы формата : Default (MPEG)
Идентификатор кодека : XVID
Идентификатор кодека/Подсказка : XviD
Продолжительность : 1 ч. 54 м.
Битрейт : 776 Кбит/сек
Ширина : 640 пикселей
Высота : 480 пикселей
Соотношение сторон : 4:3
Частота кадров : 23,976 кадра/сек
Цветовое пространство : YUV
Субдискретизация насыщенности : 4:2:0
Битовая глубина : 8 бит
Тип развёртки : Прогрессивная
Метод сжатия : С потерями
Бит/(Пиксели*Кадры) : 0.105
Размер потока : 636 Мбайт (85%)
Библиотека кодирования : XviD 1.2.1 (UTC 2008-12-04)
Аудио
Идентификатор : 1
Формат : MPEG Audio
Версия формата : Version 1
Профиль формата : Layer 3
Идентификатор кодека : 55
Идентификатор кодека/Подсказка : MP3
Продолжительность : 1 ч. 54 м.
Вид битрейта : Постоянный
Битрейт : 128 Кбит/сек
Каналы : 2 канала
Частота : 48,0 КГц
Метод сжатия : С потерями
Размер потока : 105 Мбайт (14%)
Выравнивание : Соединение по промежуткам
Продолжительность промежутка : 42 мс. (1,00 видеокадр)
Время предзагрузки промежутка : 504 мс.
Библиотека кодирования : LAME3.99r
Настройки программы : -m s -V 4 -q 2 -lowpass 17 -b 128
Скриншот c названием фильма Скриншоты
Скачать

Скачать торрент! Лофт / Заброшенная лаборатория / Чердак / Loft / Rofuto (Киёси Куросава / Kiyoshi Kurosawa) [2005, Япония, Южная Корея, мистика, драма, ужасы, DVDRip] VO

Как скачивать? · Что такое торрент? · Рейтинг и ограничения

Сайт не распространяет и не хранит электронные версии произведений, а лишь предоставляет доступ к создаваемому пользователями каталогу ссылок на торрент-файлы, которые содержат только списки хеш-сумм

[Профиль] [ЛС]
Показать сообщения:    
Ответить на тему

Текущее время: Сегодня 18:04

Часовой пояс: GMT + 4



Вы не можете начинать темы
Вы не можете отвечать на сообщения
Вы не можете редактировать свои сообщения
Вы не можете удалять свои сообщения
Вы не можете голосовать в опросах
Вы не можете прикреплять файлы к сообщениям
Вы не можете скачивать файлы