Боевик Джексон / Action Jackson (Прабху Дева / Prabhu Deva) [2014, Индия, Боевик, драма, мелодрама, DVDRip] Sub Rus + Original (hindi)

Ответить на тему
 
Автор Сообщение

user ®

Стаж: 12 лет

Сообщений: 15092

Пост Пост: #1 от 06-Фев-2015 21:39

[Цитировать]

Боевик Джексон / Action Jackson***Я криминально хорош!***- Страна: Индия
Жанр: Боевик, драма, мелодрама
Год выпуска: 2014
Продолжительность: 02:19:52-Язык: Хинди
Перевод: Субтитры
Cубтитры: русские Honey&Haseena--Режиссер: Прабху Дева / Prabhu Deva-В ролях: Аджай Девган, Сонакши Синха, Манасви Мамгаи, Ями Гаутам, Кунал Рой Капур, Аарон Брамфилд, Байрон Гибсон, Роки Верма, Прабхас (камео), Шахид Капур (камео)--Описание: Он говорит лишь раз. Второй раз не повторяет. А если повторит, то враг уже не в состоянии будет это услышать. Один его удар сокрушит тысячу противников, а одно его имя заставит дрожать землю под ногами бандитов и трепетать их трусливые сердца. И в делах сердечных ему равных нет. Он оставит на дороге самого Ромео. Под его чарами не устоит даже жестокая и хладнокровная сестричка отпетого бандита. Но только чем это обернётся...-- --Релиз-группа:
Перевод и редакция: (Honey&Haseena) (спасибо!)--Качество видео: DVDRip
Формат видео: AVI-Видео: 720х304 (2.35:1), 25 fps, XviD build 50 ~1203 kbps avg, 0.29 bit/pixel
Аудио: 48 kHz, AC3, 6 ch, ~448 kbps
Субтитры: hardsub (вшитые в картинку)
Скриншоты Скриншот c названием фильма MI
Общее
Полное имя : G:\Boevik.Jekson.2014.DVDRip.XviD.HoneyHaseena.avi
Формат : AVI
Формат/Информация : Audio Video Interleave
Размер файла : 1,78 Гбайт
Продолжительность : 2 ч. 19 м.
Общий поток : 1826 Кбит/сек
Программа кодирования : VirtualDubMod 1.5.10.2 (build 2542/release)
Библиотека кодирования : VirtualDubMod build 2542/release
Видео
Идентификатор : 0
Формат : MPEG-4 Visual
Профиль формата : Advanced Simple@L5
Параметр BVOP формата : 1
Параметр QPel формата : Нет
Параметр GMC формата : Без точки перехода
Параметр матрицы формата : Default (H.263)
Режим смешивания : Сжатый битовый поток
Идентификатор кодека : XVID
Идентификатор кодека/Подсказка : XviD
Продолжительность : 2 ч. 19 м.
Битрейт : 1594 Кбит/сек
Ширина : 720 пикселей
Высота : 304 пикселя
Соотношение сторон : 2,35:1
Частота кадров : 25,000 кадров/сек
Цветовое пространство : YUV
Субдискретизация насыщенности : 4:2:0
Битовая глубина : 8 бит
Тип развёртки : Прогрессивная
Метод сжатия : С потерями
Бит/(Пиксели*Кадры) : 0.291
Размер потока : 1,56 Гбайт (87%)
Библиотека кодирования : XviD 64
Аудио
Идентификатор : 1
Формат : AC-3
Формат/Информация : Audio Coding 3
Расширение режима : CM (complete main)
Параметр Endianness формата : Big
Идентификатор кодека : 2000
Продолжительность : 2 ч. 19 м.
Вид битрейта : Постоянный
Битрейт : 224 Кбит/сек
Каналы : 2 канала
Расположение каналов : Front: L R
Частота : 48,0 КГц
Битовая глубина : 16 бит
Метод сжатия : С потерями
Размер потока : 224 Мбайт (12%)
Выравнивание : Разделение по промежуткам
Продолжительность промежутка : 64 мс. (1,60 видеокадра)
Время предзагрузки промежутка : 500 мс.
Скачать

Скачать торрент! Боевик Джексон / Action Jackson (Прабху Дева / Prabhu Deva) [2014, Индия, Боевик, драма, мелодрама, DVDRip] Sub Rus + Original (hindi)

Как скачивать? · Что такое торрент? · Рейтинг и ограничения

Сайт не распространяет и не хранит электронные версии произведений, а лишь предоставляет доступ к создаваемому пользователями каталогу ссылок на торрент-файлы, которые содержат только списки хеш-сумм

[Профиль] [ЛС]
Показать сообщения:    
Ответить на тему

Текущее время: Сегодня 07:11

Часовой пояс: GMT + 4



Вы не можете начинать темы
Вы не можете отвечать на сообщения
Вы не можете редактировать свои сообщения
Вы не можете удалять свои сообщения
Вы не можете голосовать в опросах
Вы не можете прикреплять файлы к сообщениям
Вы не можете скачивать файлы