Бездомный скиталец / Homeless Drifter / Mushuku Mono (Кэндзи Мисуми / Kenji Misumi) [1964, Япония, боевик, DVDRip] VO (Andi) + Sub Rus, Eng + Original Jap

Ответить на тему
 
Автор Сообщение

user ®

Стаж: 13 лет

Сообщений: 15071

Пост Пост: #1 от 06-Фев-2015 18:24

[Цитировать]

Бездомный скиталец / Homeless Drifter / Mushuku Mono
Страна: Япония
Жанр: боевик
Год выпуска: 1964
Продолжительность: 01:28:36
Перевод: Одноголосый закадровый Andi
Cубтитры: русские (dmit (DM)), английские
Оригинальная аудиодорожка: японский
Режиссер: Кэндзи Мисуми / Kenji Misumi
В ролях: Итикава Райдзо (Ichikawa Raizo), Таки Эико (Taki Eiko), Цубоути Микико (TSUBOUCHI Mikiko), Фудзимаки Дзун (FUJIMAKI Jun), Абэ Тору (ABE Toru), Савамура Соносукэ (SAWAMURA Sonosuke), Исияма Кэндзиро (ISHIYAMA Kenjiro), Таки Кэиити (TAKI Keiichi)
Описание: На перевале Сагато происходит ограбление группы самураев, перевозивших золото. Погибают пятеро самураев и якудза Гэнсити, ставший свидетелем нападения. Труп шестого самурая, Куроки Ханбэя, не обнаруживают, решая что именно он и украл золото. Спустя несколько лет, пересекаются дороги двух молодых людей, разыскивающих Куроки. Один из них - сын убитого якудзы, ищет пропавшего самурая с целью мести. Другой - сын Куроки, желающий снять обвинения со своего отца.
Данный фильм результат еще одного плодотворного сотрудничества режиссера Мисуми и актера Итикава. На этот раз, помимо традиционных элементов самурайского кино, режиссер добавил немного детектива и неожиданных поворотов сюжета.
II Сэмпл II IMDB II
Релиз группа:

Доп. информация:
За [url=http://***/forum/viewtopic.php?t=2466182]исходник[/url] спасибо dmit (DM)
Качество видео: DVDRip
Формат видео: AVI
Видео: Xvid 688x288 (2.39:1) 23.976fps Bit rate 1965Kbps b/p 0.414
Аудио 1: AC3 48.0 KHz 2ch. 192kbps rus Andi
Аудио 2: AC3 48.0 KHz 2ch. 192kbps jap
Формат субтитров: softsub (SRT)
MediaInfo
Общее
Полное имя : E:\torrent\Mushuku Mono.1964.DVDRip\Mushuku Mono.1964.DVDRip.avi
Формат : AVI
Формат/Информация : Audio Video Interleave
Размер файла : 1,46 Гбайт
Продолжительность : 1 ч. 28 м.
Общий поток : 2363 Кбит/сек
Программа кодирования : VirtualDubMod 1.5.10.3 (build 2550/release)
Библиотека кодирования : VirtualDubMod build 2550/release
Видео
Идентификатор : 0
Формат : MPEG-4 Visual
Профиль формата : Advanced Simple@L5
Параметр BVOP формата : 2
Параметр QPel формата : Нет
Параметр GMC формата : Без точки перехода
Параметр матрицы формата : Default (MPEG)
Идентификатор кодека : XVID
Идентификатор кодека/Подсказка : XviD
Продолжительность : 1 ч. 28 м.
Битрейт : 1965 Кбит/сек
Ширина : 688 пикселей
Высота : 288 пикселей
Соотношение сторон : 2,40:1
Частота кадров : 23,976 кадра/сек
Цветовое пространство : YUV
Субдискретизация насыщенности : 4:2:0
Битовая глубина : 8 бит
Тип развёртки : Прогрессивная
Метод сжатия : С потерями
Бит/(Пиксели*Кадры) : 0.414
Размер потока : 1,22 Гбайт (83%)
Библиотека кодирования : XviD 1.2.1 (UTC 2008-12-04)
Аудио #1
Идентификатор : 1
Формат : AC-3
Формат/Информация : Audio Coding 3
Расширение режима : CM (complete main)
Параметр Endianness формата : Big
Идентификатор кодека : 2000
Продолжительность : 1 ч. 28 м.
Вид битрейта : Постоянный
Битрейт : 192 Кбит/сек
Каналы : 2 канала
Расположение каналов : Front: L R
Частота : 48,0 КГц
Битовая глубина : 16 бит
Метод сжатия : С потерями
Размер потока : 122 Мбайт (8%)
Выравнивание : Разделение по промежуткам
Продолжительность промежутка : 42 мс. (1,00 видеокадр)
Время предзагрузки промежутка : 500 мс.
Аудио #2
Идентификатор : 2
Формат : AC-3
Формат/Информация : Audio Coding 3
Расширение режима : CM (complete main)
Параметр Endianness формата : Big
Идентификатор кодека : 2000
Продолжительность : 1 ч. 28 м.
Вид битрейта : Постоянный
Битрейт : 192 Кбит/сек
Каналы : 2 канала
Расположение каналов : Front: L R
Частота : 48,0 КГц
Битовая глубина : 16 бит
Метод сжатия : С потерями
Размер потока : 122 Мбайт (8%)
Выравнивание : Разделение по промежуткам
Продолжительность промежутка : 42 мс. (1,00 видеокадр)
Время предзагрузки промежутка : 500 мс.
Скриншот c названием фильма Скриншоты
Скачать

Скачать торрент! Бездомный скиталец / Homeless Drifter / Mushuku Mono (Кэндзи Мисуми / Kenji Misumi) [1964, Япония, боевик, DVDRip] VO (Andi) + Sub Rus, Eng + Original Jap

Как скачивать? · Что такое торрент? · Рейтинг и ограничения

Сайт не распространяет и не хранит электронные версии произведений, а лишь предоставляет доступ к создаваемому пользователями каталогу ссылок на торрент-файлы, которые содержат только списки хеш-сумм

[Профиль] [ЛС]
Показать сообщения:    
Ответить на тему

Текущее время: Сегодня 21:48

Часовой пояс: GMT + 4



Вы не можете начинать темы
Вы не можете отвечать на сообщения
Вы не можете редактировать свои сообщения
Вы не можете удалять свои сообщения
Вы не можете голосовать в опросах
Вы не можете прикреплять файлы к сообщениям
Вы не можете скачивать файлы