Кунг фу на продажу / Kung fu on sail / Gong fu da pai mai (Су Чен Пинг / Su Chen Ping) [1979, Тайвань, боевые искусства, комедия, VHSRip] DVO [Элин, Сурикова]

Ответить на тему
 
Автор Сообщение

user ®

Стаж: 13 лет

Сообщений: 15071

Пост Пост: #1 от 06-Фев-2015 08:51

[Цитировать]

Кунг фу на продажу / Kung fu on sail / Gong fu da pai mai- -Страна: Тайвань
Жанр: боевые искусства, комедия
Год выпуска: 1979
Продолжительность: 01:33:37
Перевод: Профессиональный (двухголосый закадровый) [Элин, Сурикова]-Cубтитры: нет
Оригинальная аудиодорожка: нет
Режиссер: Су Чен Пинг / Su Chen Ping
В ролях: Сима Лунг, Чунг Ва, Дин Шек, Ман Ли-Панг, Ченг Фу-Хунг
Описание: Паренек вечно вляпывается в разные истории и получает звездулей от разных плохишей, пока его жизнь не сталкивает его со стариком который вечно бухает,но при этом знает крутой стиль кунгфу. Он соглашается научить паренька этому стилю, которому скоро понадобится знание кунгфу, что б справится с крутым матерым бандитом владеющим отлично кунгфу.
Релиз от -
Сэмпл: http://multi-up.com/1031333
Качество видео: VHSRip
Формат видео: AVI
Видео: MPEG-4 Visual at 2019 Кбит/сек; 704 x 400 (1.760) at 25.000 fps
Аудио: AC-3 at 192 Кбит/сек; 2 канала, 48,0 КГц
Автор -
MediaInfo
Общее
Полное имя : D:\Фильмы\Азиатские\Кунгфу на продажу\Kung Fu On Sail.1979.VHSRip.XviD.1400MB. rip by [Assassin's Creed].avi
Формат : AVI
Формат/Информация : Audio Video Interleave
Размер файла : 1,46 Гбайт
Продолжительность : 1 ч. 34 м.
Общий поток : 2220 Кбит/сек
Программа кодирования : VirtualDubMod 1.5.10.3 | www.virtualdub-fr.org || (build 2550/release)
Библиотека кодирования : VirtualDubMod build 2550/release
Видео
Идентификатор : 0
Формат : MPEG-4 Visual
Профиль формата : Advanced Simple@L5
Параметр BVOP формата : 1
Параметр QPel формата : Нет
Параметр GMC формата : Без точки перехода
Параметр матрицы формата : Default (MPEG)
Идентификатор кодека : XVID
Идентификатор кодека/Подсказка : XviD
Продолжительность : 1 ч. 34 м.
Битрейт : 2019 Кбит/сек
Ширина : 704 пикселя
Высота : 400 пикселей
Соотношение сторон : 16:9
Частота кадров : 25,000 кадров/сек
Цветовое пространство : YUV
Субдискретизация насыщенности : 4:2:0
Битовая глубина : 8 бит
Тип развёртки : Прогрессивная
Метод сжатия : С потерями
Бит/(Пиксели*Кадры) : 0.287
Размер потока : 1,33 Гбайт (91%)
Библиотека кодирования : XviD 1.2.1 (UTC 2008-12-04)
Аудио
Идентификатор : 1
Формат : AC-3
Формат/Информация : Audio Coding 3
Расширение режима : CM (complete main)
Параметр Endianness формата : Big
Идентификатор кодека : 2000
Продолжительность : 1 ч. 34 м.
Вид битрейта : Постоянный
Битрейт : 192 Кбит/сек
Каналы : 2 канала
Расположение каналов : Front: L R
Частота : 48,0 КГц
Битовая глубина : 16 бит
Метод сжатия : С потерями
Размер потока : 129 Мбайт (9%)
Выравнивание : Разделение по промежуткам
Продолжительность промежутка : 40 мс. (1,00 видеокадр)
Время предзагрузки промежутка : 500 мс.
Скриншоты
Скачать

Скачать торрент! Кунг фу на продажу / Kung fu on sail / Gong fu da pai mai (Су Чен Пинг / Su Chen Ping) [1979, Тайвань, боевые искусства, комедия, VHSRip] DVO [Элин, Сурикова]

Как скачивать? · Что такое торрент? · Рейтинг и ограничения

Сайт не распространяет и не хранит электронные версии произведений, а лишь предоставляет доступ к создаваемому пользователями каталогу ссылок на торрент-файлы, которые содержат только списки хеш-сумм

[Профиль] [ЛС]
Показать сообщения:    
Ответить на тему

Текущее время: Сегодня 18:43

Часовой пояс: GMT + 4



Вы не можете начинать темы
Вы не можете отвечать на сообщения
Вы не можете редактировать свои сообщения
Вы не можете удалять свои сообщения
Вы не можете голосовать в опросах
Вы не можете прикреплять файлы к сообщениям
Вы не можете скачивать файлы