Гора Цуруги - хроника геодезических пунктов / Tsurugidake: Ten no ki (Дайсаку Кимура / Daisaku Kimura) [2009, Япония, драма, приключения, DVDRip] DVO (Sakura)

Ответить на тему
 
Автор Сообщение

user ®

Стаж: 13 лет

Сообщений: 15071

Пост Пост: #1 от 03-Фев-2015 20:57

[Цитировать]

Гора Цуруги - хроника геодезических пунктов / Tsurugidake: Ten no ki
Страна: Япония
Жанр: драма, приключения
Год выпуска: 2009
Продолжительность: 02:19:44
Перевод: Любительский (двухголосый закадровый) Студия:Sakura
Cубтитры: нет
Оригинальная аудиодорожка: японский
Режиссер: Дайсаку Кимура / Daisaku Kimura
В ролях: Таданобу Асано, Теруюки Кагава, Рюхэй Мацуда, Мороока Моро, Юкидзиро Хотару, Такаси Нисина, Иппэй Каниэ, Тору Накамура, Мантаро Коити, Акинори Андо, Итиро Хасимото, Хонда Дайскэ, Миядзаки Аои, Юкиёси Одзава, Хирофуми Араи, Сава Судзуки, Такаси Сасано, Рэндзи Исибаси, Хироси Томиока, Ёдзи Танака, Такаси Танигути, Соран Тамото, Ёсико Фудзивара, Кантаро Фудзивара, Хикодзиро Фудзивара, Кэндзабуро Фудзивара, Юдзи Маэда, Кисё Итияма, Дзюн Кунимура, Хисаси Игава, Исао Нацуяги, Юки Утиудзо, Кодзи Якусё, Мидзуки Хигути
Описание: Фильм снят по одноименной книге Дзиро Нитта, основанной на реальной истории. После победы в русско-японской войне сотруднику геодезического отдела Ёситаро Сибасаки поручают задание государственной важности. Он должен завершить составление системы триангуляционных пунктов, которая покрывает всю страну за исключением горной системы Татэяма. В центре системы находится вершина Цуруги-дакэ, на которую до сих пор не ступала нога человека. Он должен не только покорить вершину, но и установить на ней триангуляционный знак 4-го класса. Решение этой задачи не терпит отлагательства, поскольку на первовосхождение одновременно претендует команда недавно организованного альпинистского клуба Японии. Местные жители противятся этому восхождению, так как считают вершину проклятой. Единственный, кто готов поддержать Сибасаки – это опытный проводник Тёдзиро Удзи. События фильма разворачиваются в течение летнего сезона 1906 и 1907 годов.
Удивительно живописная картина порадует не только любителей горных путешествий, но и всех умеющих оценить красоту природы.[url=http://***/forum/viewtopic.php?t=3903076]http://***/forum/viewtopic.php?t=3903076[/url] рип и субтитры для озвучания фильма взяты отсюда. За сабы спасибо дед сто лет.
Доп. информация: Озвучание: Студия Sakura. Озвучане: Sёgun (особое спасибо) и М.Монро. Куратор проeкта Delonnn.
Сэмпл: http://multi-up.com/629732
Качество видео: DVDRip
Формат видео: AVI
Видео: 704x304 (2.32:1), 23.976 fps, XviD MPEG-4 ~1539 kbps avg, 0.30 bit/pixel
Аудио: MPEG Audio Layer 3 48000Hz stereo 128Kbps (русский перевод)
Аудио 2: Dolby AC3 48000Hz 5ch 448Kbps (оригинальная дорога)
MediaInfo
Общее
Полное имя : G:\Гора Цуруги\Gora_Curugi\tsurugidake.2009_Sakura.dvdrip.xvid-javaopera.avi
Формат : AVI
Формат/Информация : Audio Video Interleave
Профиль формата : OpenDML
Размер файла : 2,08 Гбайт
Продолжительность : 2 ч. 19 м.
Общий поток : 2134 Кбит/сек
Название фильма : tsurugidake.2009.dvdrip.xvid-javaopera
Программа кодирования : VirtualDubMod 1.5.10.2 (build 2540/release)
Библиотека кодирования : VirtualDubMod build 2540/release
Примечание : tsurugidake.2009.dvdrip.xvid-javaopera.avi
Видео
Идентификатор : 0
Формат : MPEG-4 Visual
Профиль формата : Advanced Simple@L5
Параметр BVOP формата : 1
Параметр QPel формата : Нет
Параметр GMC формата : Без точки перехода
Параметр матрицы формата : Default (MPEG)
Режим смешивания : Сжатый битовый поток
Идентификатор кодека : XVID
Идентификатор кодека/Подсказка : XviD
Продолжительность : 2 ч. 19 м.
Битрейт : 1539 Кбит/сек
Ширина : 704 пикселя
Высота : 304 пикселя
Соотношение сторон : 2,35:1
Частота кадров : 23,976 кадра/сек
Цветовое пространство : YUV
Субдискретизация насыщенности : 4:2:0
Битовая глубина : 8 бит
Тип развёртки : Прогрессивная
Метод сжатия : С потерями
Бит/(Пиксели*Кадры) : 0.300
Размер потока : 1,50 Гбайт (72%)
Библиотека кодирования : XviD 1.2.0.dev47 (UTC 2006-11-01)
Аудио #1
Идентификатор : 1
Формат : MPEG Audio
Версия формата : Version 1
Профиль формата : Layer 3
Режим : Joint stereo
Расширение режима : MS Stereo
Идентификатор кодека : 55
Идентификатор кодека/Подсказка : MP3
Продолжительность : 2 ч. 19 м.
Вид битрейта : Постоянный
Битрейт : 128 Кбит/сек
Каналы : 2 канала
Частота : 48,0 КГц
Метод сжатия : С потерями
Размер потока : 128 Мбайт (6%)
Выравнивание : Соединение по промежуткам
Продолжительность промежутка : 42 мс. (1,00 видеокадр)
Время предзагрузки промежутка : 504 мс.
Язык : Undefined
Аудио #2
Идентификатор : 2
Формат : AC-3
Формат/Информация : Audio Coding 3
Расширение режима : CM (complete main)
Параметр Endianness формата : Big
Идентификатор кодека : 2000
Продолжительность : 2 ч. 19 м.
Вид битрейта : Постоянный
Битрейт : 448 Кбит/сек
Каналы : 6 каналов
Расположение каналов : Front: L C R, Side: L R, LFE
Частота : 48,0 КГц
Битовая глубина : 16 бит
Метод сжатия : С потерями
Размер потока : 448 Мбайт (21%)
Выравнивание : Разделение по промежуткам
Продолжительность промежутка : 42 мс. (1,00 видеокадр)
Время предзагрузки промежутка : 500 мс.
Скриншот c названием фильма Скриншоты
Скачать

Скачать торрент! Гора Цуруги - хроника геодезических пунктов / Tsurugidake: Ten no ki (Дайсаку Кимура / Daisaku Kimura) [2009, Япония, драма, приключения, DVDRip] DVO (Sakura)

Как скачивать? · Что такое торрент? · Рейтинг и ограничения

Сайт не распространяет и не хранит электронные версии произведений, а лишь предоставляет доступ к создаваемому пользователями каталогу ссылок на торрент-файлы, которые содержат только списки хеш-сумм

[Профиль] [ЛС]
Показать сообщения:    
Ответить на тему

Текущее время: Сегодня 16:36

Часовой пояс: GMT + 4



Вы не можете начинать темы
Вы не можете отвечать на сообщения
Вы не можете редактировать свои сообщения
Вы не можете удалять свои сообщения
Вы не можете голосовать в опросах
Вы не можете прикреплять файлы к сообщениям
Вы не можете скачивать файлы