Рок бродячих кошек: Бунтари 71 / Stray Cat Rock: Beat ’71 / Nora-neko rokku: Bôsô shudan \'71 (Тосия Фудзита / Toshiya Fujita) [1971, Япония, боевик, криминал, драма, DVDRip] Sub Rus + Original Jap

Ответить на тему
 
Автор Сообщение

user ®

Стаж: 13 лет

Сообщений: 15071

Пост Пост: #1 от 03-Фев-2015 20:57

[Цитировать]

Рок бродячих кошек: Бунтари 71 / Stray Cat Rock: Beat ’71 / Nora-neko rokku: Bôsô shudan '71
Страна: Япония
Студия: Hori Production, Nikkatsu
Жанр: боевик, криминал, драма
Год выпуска: 1971
Продолжительность: 01:27:08
Перевод: Субтитры (Contello и Somebody)
Cубтитры: русские
Оригинальная аудиодорожка: японский
Режиссер: Тосия Фудзита / Toshiya Fujita
В ролях: Мэйко Кадзи, Такэо Тий, Ёсио Инаба, Ёсио Харада, Тацуя Фудзи, Бунджаку Ан, Мичико Цукаса
Описание: Ёситаро Араки — негласный правитель небольшого токийского пригорода. Политики, полиция и даже бандиты готовы выполнить любую его прихоть. Единственный, кто игнорирует приказы Араки, — его родной сын и наследник. Парень (Такэо Ти) влюбился в хиппушку Фурико (Мэйко Кадзи) и сбежал вместе с девушкой из отчего дома. По приказу босса байкеры из «Четверки СС» нашли обоих беглецов, планируя вправить им мозги, но внезапная стычка закончилась поножовщиной. Уже через пять минут Араки-младшего силой погрузили в машину и увезли домой, а его подруга осталась одна на обочине, с заточкой в руке и возле трупа одного из байкеров.
Через несколько месяцев друзья Фурико из хип-табора Пираньи узнают о том, что девушка сбежала из тюрьмы. Опасаясь, что она может наломать дров, Пиранья собирает своих людей на велолимузине и отправляется сеять хаос в вотчину семейства Араки.
II Сэмпл II IMDB II
Релиз группа:

Качество видео: DVDRip
Формат видео: AVI
Видео: Xvid 720x288 (2.5:1) 23.976fps Bit rate 2040Kbps b/p 0.410
Аудио: AC3 48.0KHz 2ch. 192kbps jap
Формат субтитров: softsub (SRT)
MediaInfo
MI
Общее
Полное имя : E:\torrent\Stray.Cat.Rock - Beat'71.1971.DVDRip\Stray.Cat.Rock - Beat'71.1971.DVDRip.avi
Формат : AVI
Формат/Информация : Audio Video Interleave
Размер файла : 1,36 Гбайт
Продолжительность : 1 ч. 27 м.
Общий поток : 2242 Кбит/сек
Программа кодирования : VirtualDubMod 1.5.10.2 (build 2540/release)
Библиотека кодирования : VirtualDubMod build 2540/release
Видео
Идентификатор : 0
Формат : MPEG-4 Visual
Профиль формата : Advanced Simple@L5
Параметр BVOP формата : 2
Параметр QPel формата : Нет
Параметр GMC формата : Без точки перехода
Параметр матрицы формата : Default (MPEG)
Идентификатор кодека : XVID
Идентификатор кодека/Подсказка : XviD
Продолжительность : 1 ч. 27 м.
Битрейт : 2040 Кбит/сек
Ширина : 720 пикселей
Высота : 288 пикселей
Соотношение сторон : 2,500
Частота кадров : 23,976 кадра/сек
Цветовое пространство : YUV
Субдискретизация насыщенности : 4:2:0
Битовая глубина : 8 бит
Тип развёртки : Прогрессивная
Метод сжатия : С потерями
Бит/(Пиксели*Кадры) : 0.410
Размер потока : 1,24 Гбайт (91%)
Библиотека кодирования : XviD 1.2.0.dev47 (UTC 2006-11-01)
Аудио
Идентификатор : 1
Формат : AC-3
Формат/Информация : Audio Coding 3
Расширение режима : CM (complete main)
Параметр Endianness формата : Big
Идентификатор кодека : 2000
Продолжительность : 1 ч. 27 м.
Вид битрейта : Постоянный
Битрейт : 192 Кбит/сек
Каналы : 2 канала
Расположение каналов : Front: L R
Частота : 48,0 КГц
Битовая глубина : 16 бит
Метод сжатия : С потерями
Размер потока : 120 Мбайт (9%)
Выравнивание : Разделение по промежуткам
Продолжительность промежутка : 42 мс. (1,00 видеокадр)
Время предзагрузки промежутка : 500 мс.
Скриншот c названием фильма Скриншоты Пример субтитров
1
00:01:35,368 --> 00:01:36,681
Папа! Папа! Вставай!
2
00:01:40,182 --> 00:01:41,498
Папа, вставай!
3
00:01:50,644 --> 00:01:52,430
Твой папа там.
4
00:01:56,495 --> 00:01:58,006
Папа! Папа! Просыпайся!
5
00:02:07,224 --> 00:02:10,844
Ох, уж этот пострел -
голова раскалывается.
6
00:02:11,044 --> 00:02:13,790
Или это с бодуна тело ломит?
7
00:02:13,990 --> 00:02:16,034
Все вместе, наверное.
8
00:02:16,234 --> 00:02:18,733
А если так, то какая разница...
9
00:02:24,634 --> 00:02:32,652
Рок бродячих кошек: Бунтари'71
10
00:03:03,916 --> 00:03:04,960
А ну-ка стой!
11
00:03:05,160 --> 00:03:05,861
Фурико!
12
00:03:07,057 --> 00:03:07,915
Фурико!
13
00:03:10,223 --> 00:03:11,271
Ну, хорошо.
14
00:04:16,536 --> 00:04:17,589
Рюмэй!
15
00:04:23,531 --> 00:04:24,899
Не надо, Рюмэй.
16
00:04:25,099 --> 00:04:26,267
Пира рассердится.
17
00:04:26,467 --> 00:04:30,055
Пира - это Пира, а я - это я.
Не бойся.
18
00:05:03,275 --> 00:05:04,995
Что вы делаете?! Отпустите!
19
00:06:15,143 --> 00:06:16,148
Идиот!
20
00:06:40,429 --> 00:06:42,999
Брат, разве можно вот так?
Разве он не поплатится?
21
00:06:43,199 --> 00:06:45,768
Да понял я!
22
00:06:45,847 --> 00:06:47,901
Только ничего не поделаешь.
23
00:06:48,072 --> 00:06:49,256
Он сын сам знаешь кого.
24
00:06:49,456 --> 00:06:51,237
Мы уезжаем.
С остальным разберитесь.
25
00:06:54,603 --> 00:06:57,466
Рюмэй! Рюмэй!
26
00:06:59,212 --> 00:07:00,906
- Отпусти!
- Пошла ты...
Скачать

Скачать торрент! Рок бродячих кошек: Бунтари 71 / Stray Cat Rock: Beat ’71 / Nora-neko rokku: Bôsô shudan \'71 (Тосия Фудзита / Toshiya Fujita) [1971, Япония, боевик, криминал, драма, DVDRip] Sub Rus + Original Jap

Как скачивать? · Что такое торрент? · Рейтинг и ограничения

Сайт не распространяет и не хранит электронные версии произведений, а лишь предоставляет доступ к создаваемому пользователями каталогу ссылок на торрент-файлы, которые содержат только списки хеш-сумм

[Профиль] [ЛС]
Показать сообщения:    
Ответить на тему

Текущее время: Сегодня 18:22

Часовой пояс: GMT + 4



Вы не можете начинать темы
Вы не можете отвечать на сообщения
Вы не можете редактировать свои сообщения
Вы не можете удалять свои сообщения
Вы не можете голосовать в опросах
Вы не можете прикреплять файлы к сообщениям
Вы не можете скачивать файлы