Бывшие / Ex / Chin do (Хэйвард Мак / Heiward Mak) [2010, Китай, Мелодрама, романтика, HDRip] VO (FassaD)

Ответить на тему
 
Автор Сообщение

user ®

Стаж: 13 лет

Сообщений: 15071

Пост Пост: #1 от 03-Фев-2015 20:57

[Цитировать]

Бывшие / Ex / Chin do
Страна: Китай
Жанр: Мелодрама, романтика
Год выпуска: 2010
Продолжительность: 01:36:19
Перевод: Одноголосый (закадровый) [FassaD]
Оригинальная аудиодорожка: нет
Cубтитры: нет
Режиссер: Хэйвард Мак / Heiward Mak
В ролях:Гилиан чанг, Вилиам Чэн, Мичел Вэй, Лауренс Чёу, Джекки хонг, Кук чёнг и др.
Описание:Разбитая посуда, разбитое сердце. "Давай расстанемся! И никаких "останемся друзьями!
Но что можно поделать, если встречая любимую в прошлом половинку, чувства вспыхивают вновь? Что, если воспоминания захлестывают вас, а сердце сжимается от боли?..
Чжоу И не верит в дружбу после разрыва, но оставшись одна в мегаполисе, вынуждена жить с бывшим и его девушкой...
Пин не верит в дружбу после разрыва. Но приютив Чжоу И на пару дней он чувствует, что забыть старую любовь труднее, чем он думал...
Как же повернется их история? Есть ли дружба между бывшими? Или это просто любовь, которую так сложно забыть?

Качество: HDRip
Контейнер: AVI
Видео: 688x384 (1.79:1), 24 fps, XviD build 73 ~938 kbps avg, 0.15 bit/pixel
Аудио: 48 kHz, MPEG Layer 3, 2 ch, ~128.00 kbps avg

MI
Общее
Полное имя : C:\Users\Пользователь\Downloads\Бывшие_745_HDRip_Некул.avi
Формат : AVI
Формат/Информация : Audio Video Interleave
Размер файла : 743 Мбайт
Продолжительность : 1 ч. 36 м.
Общий поток : 1079 Кбит/сек
Дата записи : -1
Программа кодирования : XviD4PSP 7.0 / 55.48.100
Примечание : MATROSKA,WEBM > AVI / H264 > XVID CBR 940kbps HQ / AC3 > MP3 CBR 128kbps HQ
Видео
Идентификатор : 0
Формат : MPEG-4 Visual
Профиль формата : Advanced Simple@L5
Параметр BVOP формата : 1
Параметр QPel формата : Нет
Параметр GMC формата : Без точки перехода
Параметр матрицы формата : Default (H.263)
Идентификатор кодека : XVID
Идентификатор кодека/Подсказка : XviD
Продолжительность : 1 ч. 36 м.
Битрейт : 939 Кбит/сек
Ширина : 688 пикселей
Высота : 384 пикселя
Соотношение сторон : 16:9
Частота кадров : 24,000 кадра/сек
Цветовое пространство : YUV
Субдискретизация насыщенности : 4:2:0
Битовая глубина : 8 бит
Тип развёртки : Прогрессивная
Метод сжатия : С потерями
Бит/(Пиксели*Кадры) : 0.148
Размер потока : 647 Мбайт (87%)
Заголовок : AVC MPEG4 Video
Библиотека кодирования : XviD 73
Аудио
Идентификатор : 1
Формат : MPEG Audio
Версия формата : Version 1
Профиль формата : Layer 3
Режим : Joint stereo
Расширение режима : MS Stereo
Идентификатор кодека : 55
Идентификатор кодека/Подсказка : MP3
Продолжительность : 1 ч. 36 м.
Вид битрейта : Постоянный
Битрейт : 128 Кбит/сек
Каналы : 2 канала
Частота : 44,1 КГц
Метод сжатия : С потерями
Размер потока : 88,2 Мбайт (12%)
Выравнивание : Соединение по промежуткам
Продолжительность промежутка : 40 мс. (1,00 видеокадр)
Время предзагрузки промежутка : 504 мс.
Библиотека кодирования : LAME3.99r
Настройки программы : -m s -V 4 -q 2 -lowpass 17 -b 128
Скриншоты
Скачать

Скачать торрент! Бывшие / Ex / Chin do (Хэйвард Мак / Heiward Mak) [2010, Китай, Мелодрама, романтика, HDRip] VO (FassaD)

Как скачивать? · Что такое торрент? · Рейтинг и ограничения

Сайт не распространяет и не хранит электронные версии произведений, а лишь предоставляет доступ к создаваемому пользователями каталогу ссылок на торрент-файлы, которые содержат только списки хеш-сумм

[Профиль] [ЛС]
Показать сообщения:    
Ответить на тему

Текущее время: Сегодня 16:44

Часовой пояс: GMT + 4



Вы не можете начинать темы
Вы не можете отвечать на сообщения
Вы не можете редактировать свои сообщения
Вы не можете удалять свои сообщения
Вы не можете голосовать в опросах
Вы не можете прикреплять файлы к сообщениям
Вы не можете скачивать файлы