Ангел Войны / The Battling Angel / Tenshi no kiba (Рио Нишимура / Ryo Nishimura) [2003 г., Япония, криминал, DVDRip] VO (GalVid)

Ответить на тему
 
Автор Сообщение

user ®

Стаж: 13 лет

Сообщений: 15071

Пост Пост: #1 от 03-Фев-2015 03:27

[Цитировать]

Ангел Войны / The Battling Angel / Tenshi no kiba
Страна: Япония
Жанр: криминал
Год выпуска: 2003
Продолжительность: 01:58:16
Перевод: Одноголосый закадровый (GalVid)
Субтитры: нет
Оригинальная аудиодорожка: нет
Режиссер: Рио Нишимура / Ryo Nishimura
В ролях: Такао Осава, Маюми Сэда, Томока Куротани, Широ Сано, Косуке Тоёхара, Масару Нагаи, Джан Канаме, Ёдзи Танака, Тошия Тояма
Описание: Фильм снят на основе романа Аримасы Оосавы. Асука молодой детектив. Она влюблена в своего партнера, Фуруёши. Однажды, Хацуми, призывает полицию с просьбой о помощи. Асука вызывается сопроводить ее. Но оба они были растреляны. Мозг Хацуми умирает. Тело Асуки безнадежно повреждено, но ее мозг остается работоспособным. Асука выживает и ее мозг пересаживают в тело Хацуми...
Доп. информация:
Перевод: KiKar
Озвучивал: [url=http://***/forum/tracker.php?rid=12824094]GalVid[/url]

IMDb 6,0/10 (27 votes)
Кинопоиск
Релиз:
Сэмпл
Качество видео: DVDRip
Формат: AVI
Видео: 576x304 (1.89:1), 23.976 fps, DivX Codec 5.2.1 build 1328 ~1197 kbps avg, 0.28 bit/pixel
Аудио: 48 kHz, AC3 Dolby Digital, 3/2 (L,C,R,l,r) + LFE ch, ~448 kbps
MediaInfo
Общее
Полное имя : F:\Torrent-G\The.Battling.Angel.(DVDRip).GalVid.avi
Формат : AVI
Формат/Информация : Audio Video Interleave
Размер файла : 1,37 Гбайт
Продолжительность : 1 ч. 58 м.
Общий поток : 1655 Кбит/сек
Название фильма : The.Battling.Angel.(DVDRip).GalVid
Режиссёр : Release by GalVid
Программа кодирования : VirtualDubMod 1.5.10.3 (build 2550/release)
Видео
Идентификатор : 0
Формат : MPEG-4 Visual
Параметр BVOP формата : Нет
Параметр QPel формата : Нет
Параметр GMC формата : Без точки перехода
Параметр матрицы формата : Default (H.263)
Идентификатор кодека : DX50
Идентификатор кодека/Подсказка : DivX 5
Продолжительность : 1 ч. 58 м.
Битрейт : 1198 Кбит/сек
Ширина : 576 пикс.
Высота : 304 пикс.
Соотношение сторон : 1,895
Частота кадров : 23,976 кадр/сек
Цветовое пространство : YUV
Подвыборка цветности : 4:2:0
Битовая глубина : 8 бит
Тип развёртки : Прогрессивная
Метод сжатия : С потерями
Бит/(Пиксели*Кадры) : 0.285
Размер потока : 1013 Мбайт (72%)
Библиотека кодирования : DivX 5.2.1 (WaffleDay) (UTC 2004-09-08)
Аудио
Идентификатор : 1
Формат : AC-3
Формат/Информация : Audio Coding 3
Расширение режима : CM (complete main)
Идентификатор кодека : 2000
Продолжительность : 1 ч. 58 м.
Вид битрейта : Постоянный
Битрейт : 448 Кбит/сек
Канал(ы) : 6 канала(ов)
Расположение каналов : Front: L C R, Side: L R, LFE
Частота : 48,0 КГц
Битовая глубина : 16 бит
Метод сжатия : С потерями
Размер потока : 379 Мбайт (27%)
Выравнивание : Разделение по промежуткам
Продолжительность промежутка : 42 мс. (1,00 видеокадр)
Время предзагрузки промежутка : 500 ms
Скриншот с названием фильма Скриншоты
Скачать

Скачать торрент! Ангел Войны / The Battling Angel / Tenshi no kiba (Рио Нишимура / Ryo Nishimura) [2003 г., Япония, криминал, DVDRip] VO (GalVid)

Как скачивать? · Что такое торрент? · Рейтинг и ограничения

Сайт не распространяет и не хранит электронные версии произведений, а лишь предоставляет доступ к создаваемому пользователями каталогу ссылок на торрент-файлы, которые содержат только списки хеш-сумм

[Профиль] [ЛС]
Показать сообщения:    
Ответить на тему

Текущее время: Сегодня 17:46

Часовой пояс: GMT + 4



Вы не можете начинать темы
Вы не можете отвечать на сообщения
Вы не можете редактировать свои сообщения
Вы не можете удалять свои сообщения
Вы не можете голосовать в опросах
Вы не можете прикреплять файлы к сообщениям
Вы не можете скачивать файлы