Незадачливые бизнесмены / Phir Hera Pheri (Нирадж Вора / Neeraj Vora) [2006, Индия, Комедия, HDTVRip] MVO

Ответить на тему
 
Автор Сообщение

user ®

Стаж: 12 лет

Сообщений: 15092

Пост Пост: #1 от 02-Фев-2015 02:30

[Цитировать]

Незадачливые бизнесмены / Phir Hera Pheri
Страна: Индия
Жанр: Комедия
Год выпуска: 2006
Продолжительность: 02:30:00--Перевод: Профессиональный (многоголосый, закадровый)
Субтитры: Нет
Оригинальная аудиодорожка: Хинди--Режиссер: Нирадж Вора / Neeraj Vora-В ролях: Акшай Кумар, Сунил Шетти, Пареш Равал, Бипаша Басу, Римми Сен, Джонни Левер, Раджпал Ядав, Шарад Саксена, Милинд Гунаджи, Рави Киссен--Описание: Разбогатевшие после спасения похищенной дочери миллионера, Бабурао, Раджу и Шьям по-прежнему поддерживают дружеские отношения. И все их помыслы по-прежнему связаны с приумножением собственного состояния. Вот и идут они из-за этого на довольно опрометчивый шаг, вкладывают деньги в сомнительный проект. Причем берут их взаймы для этой цели у мафиози, которому пристрелить их за просроченный долг пара пустяков...-- | --Качество видео: HDTVRip ([url=http://***/forum/viewtopic.php?t=4927954]исходник[/url])
Формат видео: AVI-Видео: XviD, 704x304, 25.000 fps, 1262 kbps
Аудио: MP3, 48 kHz, 2 ch, 128 Кбит/с--Сэмпл / Sample--Рип, синхрон. звука: soso4eg-- --
Скриншот с названием:
-
Скриншоты:
-
MediaInfo
Общее
Полное имя : W:\[Релизы]\[DVDRip]\NEZADACHLIVYE.BISNESMENY.2006.HDTVRip.XviD.soso4eg.avi
Формат : AVI
Формат/Информация : Audio Video Interleave
Размер файла : 1,47 Гбайт
Продолжительность : 2 ч. 30 м.
Общий поток : 1400 Кбит/сек
Название фильма : Phir.Hera.Pheri.2006.HDTVRip.XviD.soso4eg
Режиссёр : soso4eg
Программа кодирования : VirtualDubMod 1.5.10.3 | www.virtualdub-fr.org || (build 2550/release)
Формат оригинала/Имя : Hindi
Правообладатель : специально для BitTorrent трекер *** (ex torrents.ru)
Видео
Идентификатор : 0
Формат : MPEG-4 Visual
Профиль формата : Advanced Simple@L5
Параметр BVOP формата : 1
Параметр QPel формата : Нет
Параметр GMC формата : Без точки перехода
Параметр матрицы формата : Default (H.263)
Идентификатор кодека : DX50
Идентификатор кодека/Подсказка : DivX 5
Продолжительность : 2 ч. 30 м.
Битрейт : 1262 Кбит/сек
Ширина : 704 пикселя
Высота : 304 пикселя
Соотношение сторон : 2,35:1
Частота кадров : 25,000 кадров/сек
Цветовое пространство : YUV
Субдискретизация насыщенности : 4:2:0
Битовая глубина : 8 бит
Тип развёртки : Прогрессивная
Метод сжатия : С потерями
Бит/(Пиксели*Кадры) : 0.236
Размер потока : 1,32 Гбайт (90%)
Библиотека кодирования : XviD 1.2.1 (UTC 2008-12-04)
Аудио
Идентификатор : 1
Формат : MPEG Audio
Версия формата : Version 1
Профиль формата : Layer 3
Режим : Joint stereo
Идентификатор кодека : 55
Идентификатор кодека/Подсказка : MP3
Продолжительность : 2 ч. 30 м.
Вид битрейта : Постоянный
Битрейт : 128 Кбит/сек
Каналы : 2 канала
Частота : 48,0 КГц
Метод сжатия : С потерями
Размер потока : 137 Мбайт (9%)
Выравнивание : Соединение по промежуткам
Продолжительность промежутка : 40 мс. (1,00 видеокадр)
Время предзагрузки промежутка : 504 мс.

-
-Сравнение скриншотов
[url=http://***/forum/viewtopic.php?t=1995890]http://***/forum/viewtopic.php?t=1995890[/url]
http://screenshotcomparison.com/comparison/112734
перевод один.
Скачать

Скачать торрент! Незадачливые бизнесмены / Phir Hera Pheri (Нирадж Вора / Neeraj Vora) [2006, Индия, Комедия, HDTVRip] MVO

Как скачивать? · Что такое торрент? · Рейтинг и ограничения

Сайт не распространяет и не хранит электронные версии произведений, а лишь предоставляет доступ к создаваемому пользователями каталогу ссылок на торрент-файлы, которые содержат только списки хеш-сумм

[Профиль] [ЛС]
Показать сообщения:    
Ответить на тему

Текущее время: Сегодня 13:05

Часовой пояс: GMT + 4



Вы не можете начинать темы
Вы не можете отвечать на сообщения
Вы не можете редактировать свои сообщения
Вы не можете удалять свои сообщения
Вы не можете голосовать в опросах
Вы не можете прикреплять файлы к сообщениям
Вы не можете скачивать файлы