Великое противостояние / Great duel / The Great Killing / Dai satsujin (Эйичи Кудо / Eiichi Kudo) [1964, Япония, драма, DVDRip] AVO (С. Кузнецов) + Sub Rus, Eng + Original Jap

Ответить на тему
 
Автор Сообщение

user ®

Стаж: 13 лет

Сообщений: 15071

Пост Пост: #1 от 27-Янв-2015 17:03

[Цитировать]

Великое противостояние / Great duel / The Great Killing / Dai satsujin
Страна: Япония
Жанр: драма
Год выпуска: 1964
Продолжительность: 01:53:41
Перевод: Авторский (одноголосый закадровый) С. Кузнецов
Cубтитры: русские, английские
Оригинальная аудиодорожка: японский
Режиссер: Эйичи Кудо / Eiichi Kudo
В ролях: Тору Абе, Микидзиро Хира, Ёсио Инаба, Тоитиро Кавазаки, Нами Мунаката
Описание: Во времена правления четёртого сёгуна из династии Токугава - Иэцунэ большую силу приобрёл министр Сакаи. Он имел большое влияние на сёгуна и пользовался им для своих личных целей. Подданные страны восходящего солнца страдали от коррумпированных чиновников и непомерных налогов. Группа самураев решает убить министра Сакаи, даже если им самим это будет стоить жизни.
II Сэмпл II IMDB II
Релиз группа:

Доп. информация:
За [url=http://***/forum/viewtopic.php?t=4683855]исходник[/url] спасибо tong777
Качество видео: DVDRip
Формат видео: AVI
Видео: Xvid 704x304 (2.32:1) 25.0fps Bit rate 2338Kbps b/p 0.437
Аудио 1: AC3 48.0 KHz 2ch. 192kbps rus avo
Аудио 2: AC3 48.0 KHz 2ch. 192kbps jap
MediaInfo
Общее
Полное имя : E:\torrent\The.Great.Killing.1964.DVDRip\The.Great.Killing.1964.DVDRip.avi
Формат : AVI
Формат/Информация : Audio Video Interleave
Профиль формата : OpenDML
Размер файла : 2,18 Гбайт
Продолжительность : 1 ч. 53 м.
Общий поток : 2740 Кбит/сек
Программа кодирования : VirtualDubMod 1.5.10.3 (build 2550/release)
Библиотека кодирования : VirtualDubMod build 2550/release
Видео
Идентификатор : 0
Формат : MPEG-4 Visual
Профиль формата : Advanced Simple@L5
Параметр BVOP формата : 2
Параметр QPel формата : Нет
Параметр GMC формата : Без точки перехода
Параметр матрицы формата : Default (MPEG)
Идентификатор кодека : XVID
Идентификатор кодека/Подсказка : XviD
Продолжительность : 1 ч. 53 м.
Битрейт : 2338 Кбит/сек
Ширина : 704 пикселя
Высота : 304 пикселя
Соотношение сторон : 2,35:1
Частота кадров : 25,000 кадров/сек
Цветовое пространство : YUV
Субдискретизация насыщенности : 4:2:0
Битовая глубина : 8 бит
Тип развёртки : Прогрессивная
Метод сжатия : С потерями
Бит/(Пиксели*Кадры) : 0.437
Размер потока : 1,86 Гбайт (85%)
Библиотека кодирования : XviD 1.2.1 (UTC 2008-12-04)
Аудио #1
Идентификатор : 1
Формат : AC-3
Формат/Информация : Audio Coding 3
Расширение режима : CM (complete main)
Параметр Endianness формата : Big
Идентификатор кодека : 2000
Продолжительность : 1 ч. 53 м.
Вид битрейта : Постоянный
Битрейт : 192 Кбит/сек
Каналы : 2 канала
Расположение каналов : Front: L R
Частота : 48,0 КГц
Битовая глубина : 16 бит
Метод сжатия : С потерями
Размер потока : 156 Мбайт (7%)
Выравнивание : Разделение по промежуткам
Продолжительность промежутка : 40 мс. (1,00 видеокадр)
Время предзагрузки промежутка : 500 мс.
Аудио #2
Идентификатор : 2
Формат : AC-3
Формат/Информация : Audio Coding 3
Расширение режима : CM (complete main)
Параметр Endianness формата : Big
Идентификатор кодека : 2000
Продолжительность : 1 ч. 53 м.
Вид битрейта : Постоянный
Битрейт : 192 Кбит/сек
Каналы : 2 канала
Расположение каналов : Front: L R
Частота : 48,0 КГц
Битовая глубина : 16 бит
Метод сжатия : С потерями
Размер потока : 156 Мбайт (7%)
Выравнивание : Разделение по промежуткам
Продолжительность промежутка : 40 мс. (1,00 видеокадр)
Время предзагрузки промежутка : 500 мс.
Скриншот c названием фильма Скриншоты
Скачать

Скачать торрент! Великое противостояние / Great duel / The Great Killing / Dai satsujin (Эйичи Кудо / Eiichi Kudo) [1964, Япония, драма, DVDRip] AVO (С. Кузнецов) + Sub Rus, Eng + Original Jap

Как скачивать? · Что такое торрент? · Рейтинг и ограничения

Сайт не распространяет и не хранит электронные версии произведений, а лишь предоставляет доступ к создаваемому пользователями каталогу ссылок на торрент-файлы, которые содержат только списки хеш-сумм

[Профиль] [ЛС]
Показать сообщения:    
Ответить на тему

Текущее время: Сегодня 21:53

Часовой пояс: GMT + 4



Вы не можете начинать темы
Вы не можете отвечать на сообщения
Вы не можете редактировать свои сообщения
Вы не можете удалять свои сообщения
Вы не можете голосовать в опросах
Вы не можете прикреплять файлы к сообщениям
Вы не можете скачивать файлы