Гидравлика (Евгений Серов) [2010, Россия, Драма, HDTV 1080i]

Ответить на тему
 
Автор Сообщение

user ®

Стаж: 7 лет 7 месяцев

Сообщений: 20008

Пост Пост: #1 от 27-Янв-2015 17:03

[Цитировать]

Гидравлика
Год выпуска: 2010
Производство: Россия, ЯрСинема
Жанр: Драма
Продолжительность: ~ 01:39:14
Субтитры: нет
Режиссёр: Евгений Серов
В ролях: Андрей Мерзликин, Юрий Ваксман, Андрей Кузичёв, Ирина Лачина
Описание: История о том, как однажды совершенное «маленькое» предательство, приводит к трагедии. За все в этой жизни приходит расплата, но и накопленная за годы злоба и жажда отомстить тоже чревата. Эта злоба может вернуться к тебе бумерангом, как гидравлический удар в физике. Трое однокурсников вместе учились в техническом институте, но на пятнадцать лет потеряли друг друга из виду. Спустя годы по стечению обстоятельств Сергей Самсонов и вор–щипач Аванс забираются в чужую квартиру. Эта квартира принадлежит бывшему другу – однокурснику Константину Чистову. Чистик когда-то предал Сэма, написав на него донос, из-за чего Сергея отчислили из института за неделю до защиты диплома. У Сэма, который волей судьбы оказывается в квартире Чистика, возникает план мести…

Качество: HDTV 1080i
Контейнер: TS
Видео: MPEG4 Video (H264) 1920x1080, ~ 7052 Кбит/сек, 25.00fps 0.136 bit/pixel
Аудио: MP2, 2 ch, 48,0 КГц, 256 Кбит/с
Сторонней рекламы нет!
MediaInfo
ОбщееИдентификатор : 1 (0x1)Полное имя : H:\Гидравлика HDTV_1080i_Wowa63_&_Серый1779.tsФормат : MPEG-TSРазмер файла : 5,36 ГбайтПродолжительность : 1 ч. 39 м.Общий поток : 7691 Кбит/сек
ВидеоИдентификатор : 69 (0x45)Идентификатор меню : 1 (0x1)Формат : AVCФормат/Информация : Advanced Video CodecПрофиль формата : Main@L4.0Параметр CABAC формата : ДаПараметр ReFrames формата : 3 кадраПараметры GOP формата : M=1, N=12Идентификатор кодека : 27Продолжительность : 1 ч. 39 м.Битрейт : 7052 Кбит/секШирина : 1920 пикс.Высота : 1080 пикс.Соотношение сторон : 16:9Частота кадров : 25,000 кадр/секСтандарт вещания : ComponentЦветовое пространство : YUVПодвыборка цветности : 4:2:0Битовая глубина : 8 битТип развёртки : ЧересстрочнаяПорядок развёртки : Верхнее поле первоеБит/(Пиксели*Кадры) : 0.136Размер потока : 4,91 Гбайт (92%)Основные цвета : BT.709-5, BT.1361, IEC 61966-2-4, SMPTE RP177Характеристики трансфера : BT.709-5, BT.1361Коэффициенты матрицы : BT.709-5, BT.1361, IEC 61966-2-4 709, SMPTE RP177
АудиоИдентификатор : 68 (0x44)Идентификатор меню : 1 (0x1)Формат : MPEG AudioВерсия формата : Version 1Профиль формата : Layer 2Идентификатор кодека : 3Продолжительность : 1 ч. 39 м.Вид битрейта : ПостоянныйБитрейт : 256 Кбит/секКаналы : 2 каналаЧастота : 48,0 КГцМетод сжатия : С потерямиРазмер потока : 183 Мбайт (3%)Язык : Russian
Раздача группы:
Запись:
Отдельное спасибо wowa63 за предоставление материала.
Скриншот c названием фильма Скриншоты
Скачать

Скачать торрент!

Как скачивать? · Что такое торрент? · Рейтинг и ограничения

Сайт не распространяет и не хранит электронные версии произведений, а лишь предоставляет доступ к создаваемому пользователями каталогу ссылок на торрент-файлы, которые содержат только списки хеш-сумм

[Профиль] [ЛС]
Показать сообщения:    
Ответить на тему

Текущее время: Сегодня 13:36

Часовой пояс: GMT + 4



Вы не можете начинать темы
Вы не можете отвечать на сообщения
Вы не можете редактировать свои сообщения
Вы не можете удалять свои сообщения
Вы не можете голосовать в опросах
Вы не можете прикреплять файлы к сообщениям
Вы не можете скачивать файлы