Квартирантка / Apartment: Rent at Your Own Risk (Джаг Мундра / Jag Mundhra) [2010, Индия, Триллер, драма, DVDRip-AVC] MVO (Red Media)

Ответить на тему
 
Автор Сообщение

user ®

Стаж: 12 лет

Сообщений: 15092

Пост Пост: #1 от 22-Янв-2015 15:54

[Цитировать]

Квартирантка / Apartment: Rent at Your Own Risk
Страна: Индия
Жанр: Триллер, драма
Год выпуска: 2010
Продолжительность: 01:37:33
Перевод: Профессиональный (многоголосый закадровый) Red Media
Cубтитры: нет
Режиссер: Джаг Мундра / Jag Mundhra
В ролях: Рохит Рой, Танушри Датта, Ниту Чандра, Муштак Кхан, Рави Джанкал, Нассар Абдулла, Парул Шах, Анупам Кхер, Сунешвар Бани, Шивли Бембей, Рамакант Бендре, Кишор Ананд Бханушали, Савита Бхаргава, Удита Госвами, Динеш Хингу, Рия Джейн, Раджкумар Каноджия, Шама Кхан, Рахул Манчанда, Мадхури Сони, Рима Рамчандани
Описание: Стюардесса Прити взяла в банке кредит и купила себе двухкомнатную квартиру. Она делит её вместе со своим гражданским мужем Караном, затем, обвинив его в измене, выгоняет из дома. Не в состоянии оплачивать непомерные коммунальные расходы она по объявлению находит квартирантку Неху. Однако эта приятная на вид провинциалка оказывается душевно больной и совершает одно убийство за другим…
Доп. информация: Релиз: Кинозал.ТВ
Сведение звука: oktober (Спасибо!)
Сэмпл: http://multi-up.com/1028116
Качество видео: DVDRip-AVC
Формат видео: MKV
Видео: 720x304 (2.368:1), 23.976 fps, AVC, ~ 1751 Kbps, 0.334 bits/pixel
Аудио: Русский, 48.0 KHz, MP3, 2 ch, 192 Kbps
MediaInfo
General
Complete name : F:\Kvartirantka.2010.X264.DVDRip.Oktober.mkv
Format : Matroska
File size : 1.35 GiB
Duration : 1h 37mn
Overall bit rate : 1 983 Kbps
Encoded date : UTC 2014-12-15 12:25:55
Writing application : mkvmerge v5.6.0 ('Kenya Kane') built on May 27 2012 16:44:04
Writing library : libebml v1.2.3 + libmatroska v1.3.0
Video
ID : 1
Format : AVC
Format/Info : Advanced Video Codec
Format profile : High@L3.0
Format settings, CABAC : Yes
Format settings, ReFrames : 5 frames
Muxing mode : Container profile=Unknown@3.0
Codec ID : V_MPEG4/ISO/AVC
Duration : 1h 37mn
Bit rate : 1 751 Kbps
Nominal bit rate : 1 800 Kbps
Width : 720 pixels
Height : 304 pixels
Display aspect ratio : 2.35
Frame rate : 23.976 fps
Resolution : 24 bits
Colorimetry : 4:2:0
Scan type : Progressive
Bits/(Pixel*Frame) : 0.334
Stream size : 1.19 GiB (88%)
Title : квартирантка
Writing library : x264 core 130 r2273 b3065e6
Encoding settings : cabac=1 / ref=5 / deblock=1:0:0 / analyse=0x3:0x113 / me=umh / subme=8 / psy=1 / psy_rd=1.00:0.00 / mixed_ref=1 / me_range=16 / chroma_me=1 / trellis=1 / 8x8dct=1 / cqm=0 / deadzone=21,11 / fast_pskip=1 / chroma_qp_offset=-2 / threads=6 / lookahead_threads=1 / sliced_threads=0 / nr=0 / decimate=1 / interlaced=0 / bluray_compat=0 / constrained_intra=0 / bframes=3 / b_pyramid=2 / b_adapt=2 / b_bias=0 / direct=3 / weightb=1 / open_gop=0 / weightp=2 / keyint=250 / keyint_min=23 / scenecut=40 / intra_refresh=0 / rc_lookahead=50 / rc=abr / mbtree=1 / bitrate=1800 / ratetol=1.0 / qcomp=0.60 / qpmin=0 / qpmax=69 / qpstep=4 / ip_ratio=1.40 / aq=1:1.00
Language : Russian
Audio
ID : 2
Format : MPEG Audio
Format version : Version 1
Format profile : Layer 3
Codec ID : A_MPEG/L3
Codec ID/Hint : MP3
Duration : 1h 37mn
Bit rate mode : Constant
Bit rate : 192 Kbps
Channel(s) : 2 channels
Sampling rate : 48.0 KHz
Resolution : 16 bits
Stream size : 134 MiB (10%)
Title : квартирантка
Writing library : LAME3.97
Language : Russian
Скриншоты Сравнения
[url=http://***/forum/viewtopic.php?t=3821547]http://***/forum/viewtopic.php?t=3821547[/url] => http://screenshotcomparison.com/comparison/110852/picture:0
перевод тотже.
Скачать

Скачать торрент! Квартирантка / Apartment: Rent at Your Own Risk (Джаг Мундра / Jag Mundhra) [2010, Индия, Триллер, драма, DVDRip-AVC] MVO (Red Media)

Как скачивать? · Что такое торрент? · Рейтинг и ограничения

Сайт не распространяет и не хранит электронные версии произведений, а лишь предоставляет доступ к создаваемому пользователями каталогу ссылок на торрент-файлы, которые содержат только списки хеш-сумм

[Профиль] [ЛС]
Показать сообщения:    
Ответить на тему

Текущее время: Сегодня 07:10

Часовой пояс: GMT + 4



Вы не можете начинать темы
Вы не можете отвечать на сообщения
Вы не можете редактировать свои сообщения
Вы не можете удалять свои сообщения
Вы не можете голосовать в опросах
Вы не можете прикреплять файлы к сообщениям
Вы не можете скачивать файлы