Однорукий боксер / Однорукий меченосец против девяти убийц / One Armed Swordsman Against Nine Killers / Du bi quan wang yong zhan chu men jiu zi (Тенг Хунг Хсю / Teng Hung Hsu) [1976, Тайвань, боевик, драма, DVDRip] AVO [А. Дольский]

Ответить на тему
 
Автор Сообщение

user ®

Стаж: 13 лет

Сообщений: 15071

Пост Пост: #1 от 16-Янв-2015 04:21

[Цитировать]

Однорукий боксер / Однорукий меченосец против девяти убийц / One Armed Swordsman Against Nine Killers / Du bi quan wang yong zhan chu men jiu zi- -Страна: Тайвань
Жанр: боевик, драма
Год выпуска: 1976
Продолжительность: 01:23:40-Перевод: Авторский (одноголосый закадровый)-Cубтитры: нет
Оригинальная аудиодорожка: нет
Режиссер: Тенг Хунг Хсю / Teng Hung Hsu
В ролях: Юй Ван, Фэй Ланг, Юнг Шенг Вонг, Хунг Лье Чен, Ланг Чун, Хуа Чунг, Синг Хсие, Ан Чанг Ху, Куо Чу Хуан...
Описание: Фэнг Кан (Вонг Ю) самый опытный студент в школе боевых искусств, презираемый студентами школы за свое низкое происхождение. Когда он решает уехать, мастер школы-дочь владельца школы,Пей-Эр требует поединок. Он соглашается драться голыми руками, и когда он выигрывает, коварная Пей Эр разрубает его руку с мечом. Несмотря на тяжелую травму, Фэнг тренируется изо всех сил, что б с стать непобедимым мастер меча.
Релиз от -
Сэмпл: http://multi-up.com/1026718
Качество видео: DVDRip
Формат видео: AVI
Видео: MPEG-4 Visual at 1107 Кбит/сек; 688 x 352 (1.955) at 23.976 fps
Аудио: MPEG Audio at 128 Кбит/сек; 2 канала, 48,0 КГц
Автор -
MediaInfo
Общее
Полное имя : D:\Фильмы\Азиатские\Однорукий меченосец против девяти убийц\One Armed Swordsman.1976.DVDRip.XviD.745MB. rip by [Assassin's Creed].avi
Формат : AVI
Формат/Информация : Audio Video Interleave
Размер файла : 746 Мбайт
Продолжительность : 1 ч. 23 м.
Общий поток : 1245 Кбит/сек
Программа кодирования : VirtualDubMod 1.5.10.3 | www.virtualdub-fr.org || (build 2550/release)
Библиотека кодирования : VirtualDubMod build 2550/release
Видео
Идентификатор : 0
Формат : MPEG-4 Visual
Профиль формата : Advanced Simple@L5
Параметр BVOP формата : 1
Параметр QPel формата : Нет
Параметр GMC формата : Без точки перехода
Параметр матрицы формата : Default (MPEG)
Идентификатор кодека : XVID
Идентификатор кодека/Подсказка : XviD
Продолжительность : 1 ч. 23 м.
Битрейт : 1107 Кбит/сек
Ширина : 688 пикселей
Высота : 352 пикселя
Соотношение сторон : 1,955
Частота кадров : 23,976 кадра/сек
Цветовое пространство : YUV
Субдискретизация насыщенности : 4:2:0
Битовая глубина : 8 бит
Тип развёртки : Прогрессивная
Метод сжатия : С потерями
Бит/(Пиксели*Кадры) : 0.191
Размер потока : 664 Мбайт (89%)
Библиотека кодирования : XviD 1.2.1 (UTC 2008-12-04)
Аудио
Идентификатор : 1
Формат : MPEG Audio
Версия формата : Version 1
Профиль формата : Layer 3
Идентификатор кодека : 55
Идентификатор кодека/Подсказка : MP3
Продолжительность : 1 ч. 23 м.
Вид битрейта : Постоянный
Битрейт : 128 Кбит/сек
Каналы : 2 канала
Частота : 48,0 КГц
Метод сжатия : С потерями
Размер потока : 76,7 Мбайт (10%)
Выравнивание : Соединение по промежуткам
Продолжительность промежутка : 42 мс. (1,00 видеокадр)
Время предзагрузки промежутка : 504 мс.
Библиотека кодирования : LAME3.99r
Настройки программы : -m s -V 4 -q 2 -lowpass 17 -b 128
Скриншот c названием фильма Скриншоты
Скачать

Скачать торрент! Однорукий боксер / Однорукий меченосец против девяти убийц / One Armed Swordsman Against Nine Killers / Du bi quan wang yong zhan chu men jiu zi (Тенг Хунг Хсю / Teng Hung Hsu) [1976, Тайвань, боевик, драма, DVDRip] AVO [А. Дольский]

Как скачивать? · Что такое торрент? · Рейтинг и ограничения

Сайт не распространяет и не хранит электронные версии произведений, а лишь предоставляет доступ к создаваемому пользователями каталогу ссылок на торрент-файлы, которые содержат только списки хеш-сумм

[Профиль] [ЛС]
Показать сообщения:    
Ответить на тему

Текущее время: Сегодня 15:58

Часовой пояс: GMT + 4



Вы не можете начинать темы
Вы не можете отвечать на сообщения
Вы не можете редактировать свои сообщения
Вы не можете удалять свои сообщения
Вы не можете голосовать в опросах
Вы не можете прикреплять файлы к сообщениям
Вы не можете скачивать файлы