Кулак дракона / Dragon Fist / Long quan (Ло Вэй / Lo Wei) [1979 г., Тайвань, Гонконг, боевые искусства, драма, HDRip] MVO (ДТВ)

Ответить на тему
 
Автор Сообщение

user ®

Стаж: 13 лет

Сообщений: 15071

Пост Пост: #1 от 12-Янв-2015 17:06

[Цитировать]

Кулак дракона / Dragon Fist / Long quan
Страна: Тайвань, Гонконг
Жанр: боевые искусства, драма
Год выпуска: 1979
Продолжительность:01:37:08
Перевод: Профессиональный (многоголосый закадровый) [ДТВ]
Оригинальная аудиодорожка: нет
Cубтитры: нет
Режиссер: Ло Вэй / Lo Wei
В ролях:Джеки Чан, Нора Миао, Джеймс Тьен, Lin Yin-Ju, Као Чианг, Yen Si-Kuan, Ша Фэй Ау Енг, Хсиа Хсю, Lu Chiang Chao, Эгил Хань
Описание:Воин Танг Хау Юэга теряет учителя. Его убил его давний соперник, отомстивший таким образом за любовную связь со своей женой. Женщина в отчаянии покончила с собой. Несчастный ревнивец, потрясенный ее смертью, отрубает себе ногу. Тан Хау Юэг поначалу решает отомстить убийце, но вскоре враги объединяются. Они должны сообща расследовать смерть вдовы Учителя, кем-то коварно отравленной…


Качество: НDRip
Контейнер: AVI
Видео: 688x288 (2.39:1), 23.976 fps, XviD build 50 ~931 kbps avg, 0.20 bit/pixel
Аудио: 48 kHz, MPEG Layer 3, 2 ch, ~128.00 kbps avg

MI
Общее
Полное имя : C:\Users\Пользователь\Downloads\Dragon.Fist.1979.НDRip.Некул.avi
Формат : AVI
Формат/Информация : Audio Video Interleave
Размер файла : 743 Мбайт
Продолжительность : 1 ч. 37 м.
Общий поток : 1069 Кбит/сек
Программа кодирования : VirtualDubMod 1.5.10.3 | www.virtualdub-fr.org || (build 2550/release)
Библиотека кодирования : VirtualDubMod build 2550/release
Видео
Идентификатор : 0
Формат : MPEG-4 Visual
Профиль формата : Advanced Simple@L5
Параметр BVOP формата : 2
Параметр QPel формата : Нет
Параметр GMC формата : Без точки перехода
Параметр матрицы формата : Default (MPEG)
Идентификатор кодека : XVID
Идентификатор кодека/Подсказка : XviD
Продолжительность : 1 ч. 37 м.
Битрейт : 932 Кбит/сек
Ширина : 688 пикселей
Высота : 288 пикселей
Соотношение сторон : 2,40:1
Частота кадров : 23,976 кадра/сек
Цветовое пространство : YUV
Субдискретизация насыщенности : 4:2:0
Битовая глубина : 8 бит
Тип развёртки : Прогрессивная
Метод сжатия : С потерями
Бит/(Пиксели*Кадры) : 0.196
Размер потока : 647 Мбайт (87%)
Библиотека кодирования : XviD 1.2.1 (UTC 2008-12-04)
Аудио
Идентификатор : 1
Формат : MPEG Audio
Версия формата : Version 1
Профиль формата : Layer 3
Идентификатор кодека : 55
Идентификатор кодека/Подсказка : MP3
Продолжительность : 1 ч. 37 м.
Вид битрейта : Постоянный
Битрейт : 128 Кбит/сек
Каналы : 2 канала
Частота : 48,0 КГц
Метод сжатия : С потерями
Размер потока : 88,8 Мбайт (12%)
Выравнивание : Соединение по промежуткам
Продолжительность промежутка : 42 мс. (1,00 видеокадр)
Время предзагрузки промежутка : 504 мс.
Библиотека кодирования : LAME3.99r
Настройки программы : -m s -V 4 -q 2 -lowpass 17 -b 128
Скриншоты
Скачать

Скачать торрент! Кулак дракона / Dragon Fist / Long quan (Ло Вэй / Lo Wei) [1979 г., Тайвань, Гонконг, боевые искусства, драма, HDRip] MVO (ДТВ)

Как скачивать? · Что такое торрент? · Рейтинг и ограничения

Сайт не распространяет и не хранит электронные версии произведений, а лишь предоставляет доступ к создаваемому пользователями каталогу ссылок на торрент-файлы, которые содержат только списки хеш-сумм

[Профиль] [ЛС]
Показать сообщения:    
Ответить на тему

Текущее время: Сегодня 21:32

Часовой пояс: GMT + 4



Вы не можете начинать темы
Вы не можете отвечать на сообщения
Вы не можете редактировать свои сообщения
Вы не можете удалять свои сообщения
Вы не можете голосовать в опросах
Вы не можете прикреплять файлы к сообщениям
Вы не можете скачивать файлы