Персона / Persona (Такаси Комацу / Takashi Komatsu) [2000, Япония, триллер, DVDRip] VO (aleksei80)

Ответить на тему
 
Автор Сообщение

user ®

Стаж: 13 лет

Сообщений: 15071

Пост Пост: #1 от 07-Янв-2015 22:00

[Цитировать]

Персона / Persona
Страна: Япония
Жанр: триллер
Год выпуска: 2000
Продолжительность: 01:29:31
Перевод: Одноголосый закадровый aleksei80
Cубтитры: нет
Оригинальная аудиодорожка: нет
Режиссер: Такаси Комацу / Takashi Komatsu
В ролях: Тацуя Фудзивара
Мая Куросу
Иккэй Ватанабэ
Ёма Исигаки
Тиаки Курияма
Хиромицу Сукудзи
Акадзи Маро
Описание: Отчаянные неудачники и жертвы издевательств находят компромисс против своих обидчиков, они решают скрыть себя и свои личности под маской, тем самым, приобретая мужество показаться им на глазах. Однако, не всё так просто, как кажется, данное новшество движения масок лишь прикрытие истинных преступников, в следствии возникает полный беспредел и хаос...
Сэмпл: http://multi-up.com/1025015
Качество видео: DVDRip
Формат видео: AVI
Видео: XVID, 720x400, 16:9, 25.000 fps, 1 874 Kbps
Аудио: MP3, 44.1 KHz, 192 Kbps, 2 channels
MediaInfo
General
Complete name : C:\Users\котэ\Downloads\раздача на рутрекере\Persona.avi
Format : AVI
Format/Info : Audio Video Interleave
File size : 1.30 GiB
Duration : 1h 29mn
Overall bit rate : 2 075 Kbps
Writing application : VirtualDubMod 1.5.10.2 (build 2540/release)
Writing library : VirtualDub build 32842/release
Video
ID : 0
Format : MPEG-4 Visual
Format profile : Advanced Simple@L5
Format settings, BVOP : 1
Format settings, QPel : No
Format settings, GMC : No warppoints
Format settings, Matrix : Custom
Codec ID : XVID
Codec ID/Hint : XviD
Duration : 1h 29mn
Bit rate : 1 874 Kbps
Width : 720 pixels
Height : 400 pixels
Display aspect ratio : 16:9
Frame rate : 25.000 fps
Color space : YUV
Chroma subsampling : 4:2:0
Bit depth : 8 bits
Scan type : Progressive
Compression mode : Lossy
Bits/(Pixel*Frame) : 0.260
Stream size : 1.17 GiB (90%)
Writing library : XviD 73
Audio
ID : 1
Format : MPEG Audio
Format version : Version 1
Format profile : Layer 3
Mode : Joint stereo
Mode extension : MS Stereo
Codec ID : 55
Codec ID/Hint : MP3
Duration : 1h 29mn
Bit rate mode : Constant
Bit rate : 192 Kbps
Channel(s) : 2 channels
Sampling rate : 44.1 KHz
Compression mode : Lossy
Stream size : 123 MiB (9%)
Alignment : Split accross interleaves
Interleave, duration : 40 ms (1.00 video frame)
Interleave, preload duration : 500 ms
Writing library : LAME3.97
Скриншот c названием фильма Скриншоты
Скачать

Скачать торрент! Персона / Persona (Такаси Комацу / Takashi Komatsu) [2000, Япония, триллер, DVDRip] VO (aleksei80)

Как скачивать? · Что такое торрент? · Рейтинг и ограничения

Сайт не распространяет и не хранит электронные версии произведений, а лишь предоставляет доступ к создаваемому пользователями каталогу ссылок на торрент-файлы, которые содержат только списки хеш-сумм

[Профиль] [ЛС]
Показать сообщения:    
Ответить на тему

Текущее время: Сегодня 21:01

Часовой пояс: GMT + 4



Вы не можете начинать темы
Вы не можете отвечать на сообщения
Вы не можете редактировать свои сообщения
Вы не можете удалять свои сообщения
Вы не можете голосовать в опросах
Вы не можете прикреплять файлы к сообщениям
Вы не можете скачивать файлы