Нодди спасает Рождество / Noddy\'s Magical Christmas Adventures (Дэвис Дой / Davis Doi) [2004, Мультфильм, детский, семейный, приключения, SATRip] Dub

Ответить на тему
 
Автор Сообщение

user ®

Стаж: 13 лет

Сообщений: 15041

Пост Пост: #1 от 07-Янв-2015 13:35

[Цитировать]

Нодди спасает Рождество / Noddy's Magical Christmas Adventures
Страна: США
Жанр: Мультфильм, детский, семейный, приключения
Продолжительность: 00:25:21
Год выпуска: 2004
Перевод: Профессиональный (дублированный)
Русские субтитры: нет
Режиссёр: Дэвис Дой / Davis Doi
Описание: В канун Рождества малыш Нодди помогает Санта-Клаусу доставить подарки детям. Любознательного Нодди всегда интересовало, как Санта успевает за одну ночь доставить подарки детям всего мира, проникнуть в каждый дом незамеченным, и как в его мешок помещаются все эти подарки. Нодди отправляется в гости к дедушке, чтобы получить ответы на эти вопросы, но тот говорит ему, что только сам Санта может открыть секрет. И тут, как по волшебству, Санта собственной персоной приземляется у заснеженного домика дедушки... В эту ночь Нодди не только получит ответы на все интересующие его вопросы, но и сам станет участником захватывающих событий!
Сэмпл: http://sendfile.su/1070534
Качество: SATRip
Формат: AVI
Видео: Xvid 720x528 25fps 1 747 Kbps
Аудио: AC3 48000Hz stereo 192kbps
Субтитры: отсутствуют
Подробные технические данные
C:\Users\Dmitriy\Documents\Нодди спасает Рождество.2004.XviD.SATRip.avi General Complete name : C:\Users\Dmitriy\Documents\Нодди спасает Рождество.2004.XviD.SATRip.avi Format : AVI Format/Info : Audio Video Interleave File size : 353 MiB Duration : 25mn 21s Overall bit rate : 1 948 Kbps Movie name : Noddy's Magical Christmas Adventures Director : SATRip by Thunder Writing application : VirtualDubMod 1.5.10.3 | www.virtualdub-fr.org || (build 2550/release) Original source form/Name : Cartoon Video #0 ID : 0 Format : MPEG-4 Visual Format profile : Advanced Simple@L5 Format settings, BVOP : Yes Format settings, QPel : No Format settings, GMC : No warppoints Format settings, Matrix : Default (H.263) Muxing mode : Packed bitstream Codec ID : XVID Codec ID/Hint : XviD Duration : 25mn 21s Bit rate : 1 747 Kbps Width : 720 pixels Height : 528 pixels Display aspect ratio : 4:3 Frame rate : 25.000 fps Color space : YUV Chroma subsampling : 4:2:0 Bit depth : 8 bits Scan type : Progressive Bits/(Pixel*Frame) : 0.184 Stream size : 317 MiB (90%) Writing library : XviD 64 Audio #1 ID : 1 Format : AC-3 Format/Info : Audio Coding 3 Mode extension : CM (complete main) Codec ID : 2000 Duration : 25mn 21s Bit rate mode : Constant Bit rate : 192 Kbps Channel(s) : 2 channels Channel positions : Front: L R Sampling rate : 48.0 KHz Bit depth : 16 bits Stream size : 34.8 MiB (10%) Alignment : Split accross interleaves Interleave, duration : 40 ms (1.00 video frame) Interleave, preload duration : 500 ms
Скриншоты
Скачать

Скачать торрент! Нодди спасает Рождество / Noddy\'s Magical Christmas Adventures (Дэвис Дой / Davis Doi) [2004, Мультфильм, детский, семейный, приключения, SATRip] Dub

Как скачивать? · Что такое торрент? · Рейтинг и ограничения

Сайт не распространяет и не хранит электронные версии произведений, а лишь предоставляет доступ к создаваемому пользователями каталогу ссылок на торрент-файлы, которые содержат только списки хеш-сумм

[Профиль] [ЛС]
Показать сообщения:    
Ответить на тему

Текущее время: Сегодня 00:59

Часовой пояс: GMT + 4



Вы не можете начинать темы
Вы не можете отвечать на сообщения
Вы не можете редактировать свои сообщения
Вы не можете удалять свои сообщения
Вы не можете голосовать в опросах
Вы не можете прикреплять файлы к сообщениям
Вы не можете скачивать файлы