Любовь Джульетты / Juliet in Love (Уилсон Йип / Wilson Yip) [2000, Гонконг, драма, мелодрама, DVDRip] VO (Виктор Береговых)

Ответить на тему
 
Автор Сообщение

user ®

Стаж: 13 лет

Сообщений: 15071

Пост Пост: #1 от 05-Янв-2015 23:00

[Цитировать]

Любовь Джульетты / Juliet in Love
Страна: Гонконг
Жанр: драма, мелодрама
Год выпуска: 2000
Продолжительность: 01:24:51
Перевод: Одноголосый закадровый (Виктор Береговых)
Cубтитры: нет
Режиссер: Уилсон Йип / Wilson Yip
В ролях: Фрэнсис Н, Сандра Н, Саймон Ям, Эрик Кот, Анжела Тун, Лам Суэт, Тай Пик Чи, Хён Хой
Описание: Мелкий бандит Джордан (Фрэнсис Н) оказывается должен внушительную сумму денег влиятельному мафиози (Саймон Ям) и в виде оплаты соглашается присмотреть за его новорожденным (от любовницы) ребенком. Помочь Джордану с ним берется одинокая официантка Джуди (Сандра Н), давно потерявшая надежду на личное счастье – из-за рака ей пришлось ампутировать одну из грудей…(Акира)
Сэмпл: https://www.sendspace.com/file/q6apkz
Качество видео: DVDRip
Формат видео: AVI
Видео: XviD, 720x544 (4:3), 25.000 fps, 2108 kbps avg, 0.215 bit/pixel
Аудио: AC3, 48.0 KHz, 192 Kbps, 2 channels
MediaInfo
Format : AVI
Format/Info : Audio Video Interleave
File size : 1.37 GiB
Duration : 1h 24mn
Overall bit rate : 2 307 Kbps
Writing application : VirtualDubMod 1.5.4.1 (build 2178/release)
Writing library : VirtualDubMod build 2178/release
Video
ID : 0
Format : MPEG-4 Visual
Format profile : AdvancedSimple@L5
Format settings, BVOP : Yes
Format settings, QPel : No
Format settings, GMC : No warppoints
Format settings, Matrix : Custom
Codec ID : XVID
Codec ID/Hint : XviD
Duration : 1h 24mn
Bit rate : 2 108 Kbps
Width : 720 pixels
Height : 544 pixels
Display aspect ratio : 4:3
Frame rate : 25.000 fps
Resolution : 24 bits
Colorimetry : 4:2:0
Scan type : Progressive
Bits/(Pixel*Frame) : 0.215
Stream size : 1.25 GiB (91%)
Writing library : XviD 1.2.0.dev47 (UTC 2006-11-01)
Audio
ID : 1
Format : AC-3
Format/Info : Audio Coding 3
Codec ID : 2000
Duration : 1h 24mn
Bit rate mode : Constant
Bit rate : 192 Kbps
Channel(s) : 2 channels
Channel positions : L R
Sampling rate : 48.0 KHz
Stream size : 117 MiB (8%)
Alignment : Split accross interleaves
Interleave, duration : 96 ms (2.40 video frames)
Interleave, preload duration : 96 ms
Language : Russian
Скриншот c названием фильма Скриншоты
Скачать

Скачать торрент! Любовь Джульетты / Juliet in Love (Уилсон Йип / Wilson Yip) [2000, Гонконг, драма, мелодрама, DVDRip] VO (Виктор Береговых)

Как скачивать? · Что такое торрент? · Рейтинг и ограничения

Сайт не распространяет и не хранит электронные версии произведений, а лишь предоставляет доступ к создаваемому пользователями каталогу ссылок на торрент-файлы, которые содержат только списки хеш-сумм

[Профиль] [ЛС]
Показать сообщения:    
Ответить на тему

Текущее время: Сегодня 17:36

Часовой пояс: GMT + 4



Вы не можете начинать темы
Вы не можете отвечать на сообщения
Вы не можете редактировать свои сообщения
Вы не можете удалять свои сообщения
Вы не можете голосовать в опросах
Вы не можете прикреплять файлы к сообщениям
Вы не можете скачивать файлы