Битва самураев / И небеса и земля / Heaven and Earth / Ten to Chi to (Харуки Кадокава / Haruki Kadokawa) [1990, Япония, драма, история, военный, самураи, DVDRip] DVO

Ответить на тему
 
Автор Сообщение

user ®

Стаж: 13 лет

Сообщений: 15071

Пост Пост: #1 от 03-Янв-2015 22:40

[Цитировать]

Битва самураев / И небеса и земля / Heaven and Earth / Ten to Chi to- -Страна: Япония
Жанр: драма, история, военный, самураи
Год выпуска: 1990
Продолжительность: 01:45:03-Перевод: Профессиональный (двухголосый закадровый)-Cубтитры: нет
Оригинальная аудиодорожка: нет
Режиссер: Харуки Кадокава / Haruki Kadokawa
В ролях: Такааки Еноки, Масахико Тсугава, Атсуко Асано, Хиронобу Номура, Масато Ибу, Морио Кадзама, Кёко Кисида, Хидео Морита, Исао Натсуяги...
Описание: Япония. Вторая половина XVI века. В разгаре яростные войны за власть и земли, которые вели кланы самураев. Два соперничающих князя: Нагао Кагетора (будующий Уэсуги Кэнсин) и Такэда Сингэн постоянно вступают в ожесточённые баталии за право владеть землями и крепостями.
Кагетора, более молодой, менее опытный и жестокий, должен найти в себе силы стать таким же беспощадным, как его враг Сингэн, но какой ценой?
Релиз от -
Сэмпл: http://multi-up.com/1024170
Качество видео: DVDRip
Формат видео: AVI
Видео: MPEG-4 Visual at 858 Кбит/сек; 688 x 384 (1.792) at 23.976 fps
Аудио: MPEG Audio at 128 Кбит/сек; 2 канала, 48,0 КГц
Автор -
MediaInfo
Общее
Полное имя : D:\Фильмы\Азиатские\И небеса и земля\Heaven and Earth.1990.DVDRip.XviD.745MB. rip by [Assassin's Creed].avi
Формат : AVI
Формат/Информация : Audio Video Interleave
Размер файла : 748 Мбайт
Продолжительность : 1 ч. 45 м.
Общий поток : 995 Кбит/сек
Программа кодирования : VirtualDubMod 1.5.10.3 | www.virtualdub-fr.org || (build 2550/release)
Библиотека кодирования : VirtualDubMod build 2550/release
Видео
Идентификатор : 0
Формат : MPEG-4 Visual
Профиль формата : Advanced Simple@L5
Параметр BVOP формата : 1
Параметр QPel формата : Нет
Параметр GMC формата : Без точки перехода
Параметр матрицы формата : Default (MPEG)
Идентификатор кодека : XVID
Идентификатор кодека/Подсказка : XviD
Продолжительность : 1 ч. 45 м.
Битрейт : 858 Кбит/сек
Ширина : 688 пикселей
Высота : 384 пикселя
Соотношение сторон : 16:9
Частота кадров : 23,976 кадра/сек
Цветовое пространство : YUV
Субдискретизация насыщенности : 4:2:0
Битовая глубина : 8 бит
Тип развёртки : Прогрессивная
Метод сжатия : С потерями
Бит/(Пиксели*Кадры) : 0.135
Размер потока : 645 Мбайт (86%)
Библиотека кодирования : XviD 1.2.1 (UTC 2008-12-04)
Аудио
Идентификатор : 1
Формат : MPEG Audio
Версия формата : Version 1
Профиль формата : Layer 3
Идентификатор кодека : 55
Идентификатор кодека/Подсказка : MP3
Продолжительность : 1 ч. 45 м.
Вид битрейта : Постоянный
Битрейт : 128 Кбит/сек
Каналы : 2 канала
Частота : 48,0 КГц
Метод сжатия : С потерями
Размер потока : 96,2 Мбайт (13%)
Выравнивание : Соединение по промежуткам
Продолжительность промежутка : 42 мс. (1,00 видеокадр)
Время предзагрузки промежутка : 504 мс.
Библиотека кодирования : LAME3.99r
Настройки программы : -m s -V 4 -q 2 -lowpass 17 -b 128
Скриншот c названием фильма Скриншоты
Скачать

Скачать торрент! Битва самураев / И небеса и земля / Heaven and Earth / Ten to Chi to (Харуки Кадокава / Haruki Kadokawa) [1990, Япония, драма, история, военный, самураи, DVDRip] DVO

Как скачивать? · Что такое торрент? · Рейтинг и ограничения

Сайт не распространяет и не хранит электронные версии произведений, а лишь предоставляет доступ к создаваемому пользователями каталогу ссылок на торрент-файлы, которые содержат только списки хеш-сумм

[Профиль] [ЛС]
Показать сообщения:    
Ответить на тему

Текущее время: Сегодня 17:19

Часовой пояс: GMT + 4



Вы не можете начинать темы
Вы не можете отвечать на сообщения
Вы не можете редактировать свои сообщения
Вы не можете удалять свои сообщения
Вы не можете голосовать в опросах
Вы не можете прикреплять файлы к сообщениям
Вы не можете скачивать файлы