С Новым годом! / Happy New Year (Фара Кхан / Farah Khan) [2014, Индия, Мюзикл, боевик, драма, WEB-DLRip] Sub Rus + Original

Ответить на тему
 
Автор Сообщение

user ®

Стаж: 12 лет

Сообщений: 15092

Пост Пост: #1 от 26-Дек-2014 00:30

[Цитировать]

С Новым годом! / Happy New Year*Мы вас всех затанцуем* -Страна: Индия
Жанр: Мюзикл, боевик, драма
Год выпуска: 2014
Продолжительность: 02:59:38--Язык: Хинди
Перевод: Субтитры
Cубтитры: Русские
Перевод и редакция: Honey&Haseena--Режиссер: Фара Кхан / Farah Khan-В ролях: Шахрукх Кхан, Дипика Падукон, Виван Шах, Абхишек Баччан, Сону Суд, Боман Ирани, Джеки Шрофф, Анураг Кашьяп, Анупам Кхер, Малайка Арора, Дино Мореа, Гаури Кхан--Описание: Чандрамохан Манохар Шарма, или просто сокращенно - Чарли, вот уже 8 лет лелеет надежду отомстить хладнокровному бизнесмену Чарану Гроверу за своего незаконно осуждённого отца, которого по милости Чарана обвинили в краже многомиллиардных бриллиантов, и посадили на долгие 12 лет. Но, попасть к врагу не так уж и легко и Чарли одному не справиться. Ему нужна помощь старых друзей, некогда работавших у его отца: алкаша Нанду, который пьян 24 часа в сутки, но зато, как две капли воды похож на туповатого сына Гровера - Вики, жирдяя Тэмми, страдающего острыми припадками при нервозе, головастого хакера Рохана, умеющего пробираться в любую мощно защищённую сеть, наивного Джагу, помешанного на любви матери и танцовщицы Мохини, которая настолько неграмотна, что любую английскую речь воспринимает, как китайский алфавит. Команде надо пробраться на Чемпионат Мира по Танцам, который состоится в Дубаи. Без танцевальных навыков туда не пускают, поэтому Чарли решает обмануть Мохини и просит научить его команду хоть как-то двигаться. Приехав на танцевальный конкурс, Чарли принимается за осуществление своего плана, в то время, как его друзья всё больше и больше погружаются в пучину конкурса….(c) Honey-- | --Качество видео: WEB-DLRip
Формат видео: AVI-Видео: 720x304 (2.37:1), 24.000 fps, XviD build 50 ~1493 kbps avg, 0.28 bit/pixel
Аудио: 48 kHz, AC3 Dolby Digital, 2/0 (L,R) ch, ~224 kbps
Формат субтитров: hardsub (неотключаемые, вшитые в картинку)--Сэмпл / Sample--Pелиз от: Honey&Haseena (спасибо!)
Риппер: soso4eg-- -
-
-Скриншот с названием:
-
Скриншоты:
-
MediaInfo
General
Complete name : C:\INDIYA\S.Novim.Godom.2014.WEB-DLRip.XviD.HoneyHaseena-soso4eg.avi
Format : AVI
Format/Info : Audio Video Interleave
Format profile : OpenDML
File size : 2.16 GiB
Duration : 2h 59mn
Overall bit rate : 1 725 Kbps
Movie name : Happy.New.Year.2014.WEB-DLRip.XviD.HoneyHaseena-soso4eg
Director : soso4eg
Writing application : VirtualDubMod 1.5.10.2 (build 2540/release)
Original source form/Name : Hindi
Copyright : специально для BitTorrent трекер *** (ex torrents.ru)
Comment : пер. суб. Honey&Haseena
Video
ID : 0
Format : MPEG-4 Visual
Format profile : Advanced Simple@L5
Format settings, BVOP : 2
Format settings, QPel : No
Format settings, GMC : No warppoints
Format settings, Matrix : Default (H.263)
Codec ID : XVID
Codec ID/Hint : XviD
Duration : 2h 59mn
Bit rate : 1 488 Kbps
Width : 720 pixels
Height : 304 pixels
Display aspect ratio : 2.35:1
Frame rate : 24.000 fps
Color space : YUV
Chroma subsampling : 4:2:0
Bit depth : 8 bits
Scan type : Progressive
Compression mode : Lossy
Bits/(Pixel*Frame) : 0.283
Stream size : 1.87 GiB (86%)
Writing library : XviD 1.2.1 (UTC 2008-12-04)
Audio
ID : 1
Format : AC-3
Format/Info : Audio Coding 3
Mode extension : CM (complete main)
Format settings, Endianness : Big
Codec ID : 2000
Duration : 2h 59mn
Bit rate mode : Constant
Bit rate : 224 Kbps
Channel(s) : 2 channels
Channel positions : Front: L R
Sampling rate : 48.0 KHz
Bit depth : 16 bits
Compression mode : Lossy
Stream size : 288 MiB (13%)
Alignment : Split accross interleaves
Interleave, duration : 42 ms (1.00 video frame)
Interleave, preload duration : 500 ms
Скачать

Скачать торрент! С Новым годом! / Happy New Year (Фара Кхан / Farah Khan) [2014, Индия, Мюзикл, боевик, драма, WEB-DLRip] Sub Rus + Original

Как скачивать? · Что такое торрент? · Рейтинг и ограничения

Сайт не распространяет и не хранит электронные версии произведений, а лишь предоставляет доступ к создаваемому пользователями каталогу ссылок на торрент-файлы, которые содержат только списки хеш-сумм

[Профиль] [ЛС]
Показать сообщения:    
Ответить на тему

Текущее время: Сегодня 06:38

Часовой пояс: GMT + 4



Вы не можете начинать темы
Вы не можете отвечать на сообщения
Вы не можете редактировать свои сообщения
Вы не можете удалять свои сообщения
Вы не можете голосовать в опросах
Вы не можете прикреплять файлы к сообщениям
Вы не можете скачивать файлы