Человек с планом / The Plan Man (Си Хюп Сон / Si-Heup Seong) [2014, Южная Корея, комедия, HDTVRip] DVO (GREEN TEA)

Ответить на тему
 
Автор Сообщение

user ®

Стаж: 13 лет

Сообщений: 15071

Пост Пост: #1 от 22-Дек-2014 17:30

[Цитировать]

Человек с планом / The Plan Man
Страна: Южная Корея
Жанр: комедия
Год выпуска: 2014
Продолжительность: 02:00:57
Перевод: Любительский (двухголосый закадровый) [GREEN TEA]
Оригинальная аудиодорожка: нет
Cубтитры: нет
Режиссер: Си Хюп Сон / Si-Heup Seong
В ролях:Чон Чжэ Ён, Хан Чжи Мин, Чха Йе Рён, Чои Вон Ён, Чан Гван, Чжи-ен Ким, Пак Джин Джу, Пак Киль Су, Ю Сын Мок и др
Описание:Хан Чон Сок (Чон Чжэ Ён) из тех жутких педантов, у которых каждое мгновение его жизни четко распланировано и он не терпит никаких отклонений от своего четкого графика. Однажды, он встречает и без памяти влюбляется в красавицу Ли Чжи Вон (Чха Е Рюн), но, к его глубокому разочарованию, девушка отвергает его, потому что не представляет рядом с собой такого скучного человека. Он так убит горем, что позволяет близкой подружке своей возлюбленной помочь ему превратиться из педанта в обычного беззаботного парня. Ведь Ю Со Чжон (Хан Чжи Мин) - его полная противоположность во всех отношениях. Эта бесшабашная солистка рок-группы вообще не имеет никакого понятия о планировании и наслаждается жизнью по полной. Они вместе начинают тяжелую борьбу по его перевоплощению, и, тут, в голову Со Чжон приходит сумасшедшая идея, что в ответ Чон Сок может помочь ей стать серьезней. Что из этого получится, вы узнаете, посмотрев эту комедию...

Сэмпл
Качество: HDTVRip
Контейнер: AVI
Видео: 720x304 (2.37:1), 23.975 fps, XviD build 62 ~2170 kbps avg, 0.41 bit/pixel
Аудио: 48 kHz, AC3 Dolby Digital, 2/0 (L,R) ch, ~256 kbps

MI
Общее
Полное имя : C:\Users\Пользователь\Downloads\The Plan Man (2014) HDTVRip.avi
Формат : AVI
Формат/Информация : Audio Video Interleave
Профиль формата : OpenDML
Настройки формата : rec
Размер файла : 2,06 Гбайт
Продолжительность : 2 ч. 0 м.
Общий поток : 2433 Кбит/сек
Программа кодирования : AVI-Mux GUI 1.17.8.3, Feb 16 201019:42:50
Видео
Идентификатор : 0
Формат : MPEG-4 Visual
Профиль формата : Advanced Simple@L5
Параметр BVOP формата : Нет
Параметр QPel формата : Нет
Параметр GMC формата : Без точки перехода
Параметр матрицы формата : Default (H.263)
Идентификатор кодека : XVID
Идентификатор кодека/Подсказка : XviD
Продолжительность : 2 ч. 0 м.
Битрейт : 2172 Кбит/сек
Ширина : 720 пикселей
Высота : 304 пикселя
Соотношение сторон : 2,35:1
Частота кадров : 23,976 кадра/сек
Цветовое пространство : YUV
Субдискретизация насыщенности : 4:2:0
Битовая глубина : 8 бит
Тип развёртки : Прогрессивная
Метод сжатия : С потерями
Бит/(Пиксели*Кадры) : 0.414
Размер потока : 1,83 Гбайт (89%)
Библиотека кодирования : XviD 62
Аудио
Идентификатор : 1
Формат : AC-3
Формат/Информация : Audio Coding 3
Расширение режима : CM (complete main)
Параметр Endianness формата : Big
Идентификатор кодека : 2000
Продолжительность : 2 ч. 0 м.
Вид битрейта : Постоянный
Битрейт : 256 Кбит/сек
Каналы : 2 канала
Расположение каналов : Front: L R
Частота : 48,0 КГц
Битовая глубина : 16 бит
Метод сжатия : С потерями
Размер потока : 221 Мбайт (11%)
Выравнивание : Соединение по промежуткам
Продолжительность промежутка : 64 мс. (1,53 видеокадра)
Время предзагрузки промежутка : 192 мс.
Заголовок : 2
Скриншоты
Скачать

Скачать торрент! Человек с планом / The Plan Man (Си Хюп Сон / Si-Heup Seong) [2014, Южная Корея, комедия, HDTVRip] DVO (GREEN TEA)

Как скачивать? · Что такое торрент? · Рейтинг и ограничения

Сайт не распространяет и не хранит электронные версии произведений, а лишь предоставляет доступ к создаваемому пользователями каталогу ссылок на торрент-файлы, которые содержат только списки хеш-сумм

[Профиль] [ЛС]
Показать сообщения:    
Ответить на тему

Текущее время: Сегодня 10:45

Часовой пояс: GMT + 4



Вы не можете начинать темы
Вы не можете отвечать на сообщения
Вы не можете редактировать свои сообщения
Вы не можете удалять свои сообщения
Вы не можете голосовать в опросах
Вы не можете прикреплять файлы к сообщениям
Вы не можете скачивать файлы