Мама, папа - знакомьтесь! / Знакомство с родственниками / Clash of the Families / Meet The In-Laws / Wi-heom-han Sang-gyeon-rye (Ким Джин-Юн / Kim Jin-Young) [2011, Южная Корея, комедия, мелодрама, HDRip] Original Kor + Sub rus

Ответить на тему
 
Автор Сообщение

user ®

Стаж: 13 лет

Сообщений: 15071

Пост Пост: #1 от 21-Дек-2014 21:30

[Цитировать]

Мама, папа - знакомьтесь! / Знакомство с родственниками / Clash of the Families / Meet The In-Laws / Wi-heom-han Sang-gyeon-ryу- -Страна: Южная Корея
Жанр: комедия, мелодрама
Год выпуска: 2011
Продолжительность: 01:58:05-Перевод: Субтитры [grendel1983 aka dobryj]-Cубтитры: русские [вшитые]
Оригинальная аудиодорожка: корейская
Режиссер: Ким Джин-Юн / Kim Jin-Young
В ролях: Сон Сэ-Бёк, Ли Си-Юн, Бэк Юн-Сик, Ким Су Ми, Ким Энг Су, Парк Чул-Мин
Описание: История этого фильма — романтическая история любви провинциального паренька Хён Джина и девушки Да-Хун. У молодых людей чистые и светлые чувства друг к другу. Они, как ростки, тянутся, чтоб создать семью, но вот есть преграда: нужно сделать так, чтоб понравиться её родителям. Ведь папа невесты не любит провинциалов…
Остается теперь Хён Джину поработать над собственным акцентом, чтоб папа подумал, что парень из столицы.
Релиз от -
Качество видео: HDRip
Формат видео: AVI
Видео: MPEG-4 Visual at 1318 Кбит/сек; 720 x 304 (2.368) at 23.976 fps
Аудио: AC-3 at 448 Кбит/сек; 6 каналов, 48,0 КГц
Автор -
MediaInfo
Общее
Полное имя : D:\Фильмы\Азиатские\Знакомство с родственниками\Clash of the Families.2011.HDRip.XviD.1400MB. rip by [Assassin's Creed].avi
Формат : AVI
Формат/Информация : Audio Video Interleave
Размер файла : 1,46 Гбайт
Продолжительность : 1 ч. 58 м.
Общий поток : 1775 Кбит/сек
Программа кодирования : VirtualDubMod 1.5.10.3 | www.virtualdub-fr.org || (build 2550/release)
Библиотека кодирования : VirtualDubMod build 2550/release
Видео
Идентификатор : 0
Формат : MPEG-4 Visual
Профиль формата : Advanced Simple@L5
Параметр BVOP формата : 1
Параметр QPel формата : Нет
Параметр GMC формата : Без точки перехода
Параметр матрицы формата : Default (MPEG)
Идентификатор кодека : XVID
Идентификатор кодека/Подсказка : XviD
Продолжительность : 1 ч. 58 м.
Битрейт : 1318 Кбит/сек
Ширина : 720 пикселей
Высота : 304 пикселя
Соотношение сторон : 2,35:1
Частота кадров : 23,976 кадра/сек
Цветовое пространство : YUV
Субдискретизация насыщенности : 4:2:0
Битовая глубина : 8 бит
Тип развёртки : Прогрессивная
Метод сжатия : С потерями
Бит/(Пиксели*Кадры) : 0.251
Размер потока : 1,09 Гбайт (74%)
Библиотека кодирования : XviD 1.2.1 (UTC 2008-12-04)
Аудио
Идентификатор : 1
Формат : AC-3
Формат/Информация : Audio Coding 3
Расширение режима : CM (complete main)
Параметр Endianness формата : Big
Идентификатор кодека : 2000
Продолжительность : 1 ч. 58 м.
Вид битрейта : Постоянный
Битрейт : 448 Кбит/сек
Каналы : 6 каналов
Расположение каналов : Front: L C R, Side: L R, LFE
Частота : 48,0 КГц
Битовая глубина : 16 бит
Метод сжатия : С потерями
Размер потока : 378 Мбайт (25%)
Выравнивание : Разделение по промежуткам
Продолжительность промежутка : 42 мс. (1,00 видеокадр)
Время предзагрузки промежутка : 500 мс.
Скриншот c названием фильма Скриншоты
Скачать

Скачать торрент! Мама, папа - знакомьтесь! / Знакомство с родственниками / Clash of the Families / Meet The In-Laws / Wi-heom-han Sang-gyeon-rye (Ким Джин-Юн / Kim Jin-Young) [2011, Южная Корея, комедия, мелодрама, HDRip] Original Kor + Sub rus

Как скачивать? · Что такое торрент? · Рейтинг и ограничения

Сайт не распространяет и не хранит электронные версии произведений, а лишь предоставляет доступ к создаваемому пользователями каталогу ссылок на торрент-файлы, которые содержат только списки хеш-сумм

[Профиль] [ЛС]
Показать сообщения:    
Ответить на тему

Текущее время: Сегодня 22:25

Часовой пояс: GMT + 4



Вы не можете начинать темы
Вы не можете отвечать на сообщения
Вы не можете редактировать свои сообщения
Вы не можете удалять свои сообщения
Вы не можете голосовать в опросах
Вы не можете прикреплять файлы к сообщениям
Вы не можете скачивать файлы