Кафе Мадрас / Madras Cafe (Шуджит Сиркар / Shoojit Sircar) [2013, Индия, Боевик, Военный, HDRip] MVO + Sub Rus

Ответить на тему
 
Автор Сообщение

user ®

Стаж: 13 лет

Сообщений: 15070

Пост Пост: #1 от 17-Дек-2014 04:40

[Цитировать]

Кафе Мадрас / Madras Cafe
Страна: Индия
Жанр: Боевик, Военный
Год выпуска: 2013
Продолжительность: 02:08:13
Перевод: Любительский (многоголосый закадровый)
Cубтитры: русские
Оригинальная аудиодорожка: Хинди
Режиссер: Шуджит Сиркар / Shoojit Sircar
В ролях:
Джон Абрахам
Наргис Факхри
Раши Кханна
Авийит Датт
Leena Maria Paul
Kannan Arunachalam
Prakash Belawadi
Сиддартха Басу
Эджей Ратнам
Dibang
Описание: Действие фильма разворачивается в Индии и Шри-Ланке, это политический шпионский триллер на фоне гражданской войны. Главный герой — Викрам Сингх — офицер индийской армии, который назначается отделом исследований и анализа разведывательного управления на должность руководителя тайными операциями в Джаффне, вскоре после того, как индийские миротворческие силы были вынуждены отступить. По мере его продвижения в Шри-Ланку с намерением подавить мятежников, он запутывается в повстанческой и военной политике. Там он встречает британскую журналистку Джаю Сахни, которая хочет рассказать правду о гражданской войне.
Качество видео: HDRip
Формат видео: AVI
Видео: Xvid , 720x304, 24 fps, 1734 kbps
Аудио 1 : Русский , AC3, 48 kHz, Dolby Digital, 6 ch, 448 Кбит/с
Аудио 2: Хинди , AC3, 48 kHz, Dolby Digital, 2 ch, 224 Кбит/с
MediaInfo
General
Complete name : C:\Users\1\Downloads\Мадрас-кафе.2013.HDRip\Madras.Cafe.2013.HDRip.Rus.Original.ICG.GeneralFilm.avi
Format : AVI
Format/Info : Audio Video Interleave
Format profile : OpenDML
File size : 2.17 GiB
Duration : 2h 8mn
Overall bit rate : 2 424 Kbps
Writing application : VirtualDubModRus 1.5.10.2 (build 2542/release)
Writing library : VirtualDubMod build 2542/release
Video
ID : 0
Format : MPEG-4 Visual
Format profile : Advanced Simple@L5
Format settings, BVOP : Yes
Format settings, QPel : No
Format settings, GMC : No warppoints
Format settings, Matrix : Default (MPEG)
Codec ID : XVID
Codec ID/Hint : XviD
Duration : 2h 8mn
Bit rate : 1 734 Kbps
Width : 720 pixels
Height : 304 pixels
Display aspect ratio : 2.35:1
Frame rate : 24.000 fps
Color space : YUV
Chroma subsampling : 4:2:0
Bit depth : 8 bits
Scan type : Progressive
Bits/(Pixel*Frame) : 0.330
Stream size : 1.55 GiB (72%)
Writing library : XviD 64
Audio #1
ID : 1
Format : AC-3
Format/Info : Audio Coding 3
Mode extension : CM (complete main)
Codec ID : 2000
Duration : 2h 8mn
Bit rate mode : Constant
Bit rate : 448 Kbps
Channel(s) : 6 channels
Channel positions : Front: L C R, Side: L R, LFE
Sampling rate : 48.0 KHz
Bit depth : 16 bits
Video delay : 14ms
Stream size : 411 MiB (18%)
Alignment : Split accross interleaves
Interleave, duration : 42 ms (1.00 video frame)
Interleave, preload duration : 500 ms
Audio #2
ID : 2
Format : AC-3
Format/Info : Audio Coding 3
Mode extension : CM (complete main)
Codec ID : 2000
Duration : 2h 8mn
Bit rate mode : Constant
Bit rate : 224 Kbps
Channel(s) : 2 channels
Channel positions : Front: L R
Sampling rate : 48.0 KHz
Bit depth : 16 bits
Stream size : 205 MiB (9%)
Alignment : Aligned on interleaves
Interleave, duration : 42 ms (1.00 video frame)
Interleave, preload duration : 512 ms
Скриншоты Сэмпл
Скачать

Скачать торрент! Кафе Мадрас / Madras Cafe (Шуджит Сиркар / Shoojit Sircar) [2013, Индия, Боевик, Военный, HDRip] MVO + Sub Rus

Как скачивать? · Что такое торрент? · Рейтинг и ограничения

Сайт не распространяет и не хранит электронные версии произведений, а лишь предоставляет доступ к создаваемому пользователями каталогу ссылок на торрент-файлы, которые содержат только списки хеш-сумм

[Профиль] [ЛС]
Показать сообщения:    
Ответить на тему

Текущее время: Сегодня 15:23

Часовой пояс: GMT + 4



Вы не можете начинать темы
Вы не можете отвечать на сообщения
Вы не можете редактировать свои сообщения
Вы не можете удалять свои сообщения
Вы не можете голосовать в опросах
Вы не можете прикреплять файлы к сообщениям
Вы не можете скачивать файлы