Супер Мазинга 3 / Галактические захватчики / Super Majingga 3 / Raiders Of Galaxy (Сёг Чёл Пак / Seung-cheol Park) [1982, приключения, фантастика, меха, VHSRip] VO (Трамвай-фильм)

Ответить на тему
 
Автор Сообщение

user ®

Стаж: 13 лет

Сообщений: 15041

Пост Пост: #1 от 15-Дек-2014 18:55

[Цитировать]

Супер Мазинга 3 / Галактические захватчики / Super Majingga 3 / Raiders Of Galaxy
Страна: South Korea / Adda Audio Visual Ltd. (продюссер Джозеф Лай)
Жанр: приключения, фантастика, меха
Продолжительность: 01:03:03
Год выпуска: 1982
Перевод: Одноголосый закадровый (Трамвай-фильм)
Русские субтитры: нет
Режиссёр: Сёг Чёл Пак / Seung-cheol Park
Описание: Известен миру так же как "Супер Мазинга 3"
Группа подростков на боевом роботе Супер Мазинга 3 противостоит злобному президенту Андромеды, который намеревается покорить Землю для своего таинственного покровителя-демона.
Семпл: http://multi-up.com/1020681

Качество: VHSRip
Формат: AVI
Видео: Xvid, 512x384, 29.97fps, 1 543 Кбит/с
Аудио: MP3, 44100Hz, stereo, 128 Кбит/с
Субтитры: отсутствуют
Подробные технические данные
ОбщееПолное имя : E:\Download\Raiders.Of.Galaxy.Tramvai.film.aviФормат : AVIФормат/Информация : Audio Video InterleaveРазмер файла : 762 МбайтПродолжительность : 1 ч. 3 м.Общий поток : 1689 Кбит/сек
ВидеоИдентификатор : 0Формат : MPEG-4 VisualПрофиль формата : Simple@L3Параметр BVOP формата : НетПараметр QPel формата : НетПараметр GMC формата : Без точки переходаПараметр матрицы формата : Default (H.263)Идентификатор кодека : XVIDИдентификатор кодека/Подсказка : XviDПродолжительность : 1 ч. 3 м.Битрейт : 1543 Кбит/секШирина : 512 пикселейВысота : 384 пикселяСоотношение сторон : 4:3Частота кадров : 29,970 кадров/секЧастота кадров в оригинале : 29,000 кадров/секЦветовое пространство : YUVСубдискретизация насыщенности : 4:2:0Битовая глубина : 8 битТип развёртки : ПрогрессивнаяМетод сжатия : С потерямиБит/(Пиксели*Кадры) : 0.262Размер потока : 696 Мбайт (91%)Библиотека кодирования : XviD 1.2.1 (UTC 2008-12-04)
АудиоИдентификатор : 1Формат : MPEG AudioВерсия формата : Version 1Профиль формата : Layer 3Режим : Joint stereoРасширение режима : MS StereoИдентификатор кодека : 55Идентификатор кодека/Подсказка : MP3Продолжительность : 1 ч. 3 м.Вид битрейта : ПостоянныйБитрейт : 128 Кбит/секКаналы : 2 каналаЧастота : 44,1 КГцМетод сжатия : С потерямиРазмер потока : 57,7 Мбайт (8%)Выравнивание : Соединение по промежуткамПродолжительность промежутка : 26 мс. (0,78 видеокадр)Библиотека кодирования : LAME3.98.2
Скриншоты
Скачать

Скачать торрент! Супер Мазинга 3 / Галактические захватчики / Super Majingga 3 / Raiders Of Galaxy (Сёг Чёл Пак / Seung-cheol Park) [1982, приключения, фантастика, меха, VHSRip] VO (Трамвай-фильм)

Как скачивать? · Что такое торрент? · Рейтинг и ограничения

Сайт не распространяет и не хранит электронные версии произведений, а лишь предоставляет доступ к создаваемому пользователями каталогу ссылок на торрент-файлы, которые содержат только списки хеш-сумм

[Профиль] [ЛС]
Показать сообщения:    
Ответить на тему

Текущее время: Сегодня 00:18

Часовой пояс: GMT + 4



Вы не можете начинать темы
Вы не можете отвечать на сообщения
Вы не можете редактировать свои сообщения
Вы не можете удалять свои сообщения
Вы не можете голосовать в опросах
Вы не можете прикреплять файлы к сообщениям
Вы не можете скачивать файлы