Уничтоженный рай / Убийственный рай / Paradise Murdered / Geuk-rak-do Sal-in-sa-geon (Ким Хан Мин / Kim Han-min) [2007, Южная Корея, драма, мистика, HDRip] VO [den904]

Ответить на тему
 
Автор Сообщение

user ®

Стаж: 13 лет

Сообщений: 15071

Пост Пост: #1 от 12-Дек-2014 01:50

[Цитировать]

Уничтоженный рай / Убийственный рай / Paradise Murdered / Geuk-rak-do Sal-in-sa-geon- -Страна: Южная Корея
Жанр: драма, мистика
Год выпуска: 2007
Продолжительность: 01:50:28-Перевод: Одноголосый закадровый [den904]-Cубтитры: нет
Оригинальная аудиодорожка: нет
Режиссер: Ким Хан Мин / Kim Han-min
В ролях: Ан Нэ Сан, Чу-бон Чои, Чон Ман Сик, Бён-Чхун Ким, Ким Ин Мун, Даэ-хийон Ли...
Описание: Райский остров — тихое место, на котором проживают жители небольшой деревеньки. Однажды к ним приезжает добрый доктор, который всех лечит и спасает и кажется почти что святым. Через некоторое время на острове начинает происходить череда запутанных убийств, которые суеверные жители связывают с проклятием Целомудренной Леди — вдовы, запертой и заморенной голодом, старостой этого острова. Отсутствие каких-либо достоверных фактов, приводит к нарастанию взаимных подозрений и новым убийствам, но правду, как шило — в мешке не утаишь, и настоящий убийца будет раскрыт и не избегнет наказания…
Релиз от -
Сэмпл: http://multi-up.com/1019638
Качество видео: HDRip
Формат видео: AVI
Видео: MPEG-4 Visual at 811 Кбит/сек; 672 x 272 (2.471) at 23.976 fps
Аудио: MPEG Audio at 128 Кбит/сек; 2 канала, 48,0 КГц
Автор -
MediaInfo
Общее
Полное имя : D:\Фильмы\Азиатские\Убийственный рай\Paradise Murdered.2007.HDRip.XviD.745MB. rip by [Assassin's Creed].avi
Формат : AVI
Формат/Информация : Audio Video Interleave
Размер файла : 749 Мбайт
Продолжительность : 1 ч. 50 м.
Общий поток : 948 Кбит/сек
Программа кодирования : VirtualDubMod 1.5.10.2 (build 2540/release)
Библиотека кодирования : VirtualDubMod build 2540/release
Видео
Идентификатор : 0
Формат : MPEG-4 Visual
Профиль формата : Advanced Simple@L5
Параметр BVOP формата : 1
Параметр QPel формата : Нет
Параметр GMC формата : Без точки перехода
Параметр матрицы формата : Default (MPEG)
Идентификатор кодека : XVID
Идентификатор кодека/Подсказка : XviD
Продолжительность : 1 ч. 50 м.
Битрейт : 811 Кбит/сек
Ширина : 672 пикселя
Высота : 272 пикселя
Соотношение сторон : 2,471
Частота кадров : 23,976 кадра/сек
Цветовое пространство : YUV
Субдискретизация насыщенности : 4:2:0
Битовая глубина : 8 бит
Тип развёртки : Прогрессивная
Метод сжатия : С потерями
Бит/(Пиксели*Кадры) : 0.185
Размер потока : 641 Мбайт (86%)
Библиотека кодирования : XviD 1.2.1 (UTC 2008-12-04)
Аудио
Идентификатор : 1
Формат : MPEG Audio
Версия формата : Version 1
Профиль формата : Layer 3
Идентификатор кодека : 55
Идентификатор кодека/Подсказка : MP3
Продолжительность : 1 ч. 50 м.
Вид битрейта : Постоянный
Битрейт : 128 Кбит/сек
Каналы : 2 канала
Частота : 48,0 КГц
Метод сжатия : С потерями
Размер потока : 101 Мбайт (13%)
Выравнивание : Соединение по промежуткам
Продолжительность промежутка : 42 мс. (1,00 видеокадр)
Время предзагрузки промежутка : 504 мс.
Библиотека кодирования : LAME3.99r
Настройки программы : -m s -V 4 -q 2 -lowpass 17 -b 128
Скриншот c названием фильма Скриншоты
Скачать

Скачать торрент! Уничтоженный рай / Убийственный рай / Paradise Murdered / Geuk-rak-do Sal-in-sa-geon (Ким Хан Мин / Kim Han-min) [2007, Южная Корея, драма, мистика, HDRip] VO [den904]

Как скачивать? · Что такое торрент? · Рейтинг и ограничения

Сайт не распространяет и не хранит электронные версии произведений, а лишь предоставляет доступ к создаваемому пользователями каталогу ссылок на торрент-файлы, которые содержат только списки хеш-сумм

[Профиль] [ЛС]
Показать сообщения:    
Ответить на тему

Текущее время: Сегодня 21:09

Часовой пояс: GMT + 4



Вы не можете начинать темы
Вы не можете отвечать на сообщения
Вы не можете редактировать свои сообщения
Вы не можете удалять свои сообщения
Вы не можете голосовать в опросах
Вы не можете прикреплять файлы к сообщениям
Вы не можете скачивать файлы