Раджа Хиндустани / Raja Hindustani (Дармеш Даршан / Dharmesh Darshan) [1996, Индия, Боевик, драма, мелодрама, комедия, DVDRip] MVO (Zee Tv)

Ответить на тему
 
Автор Сообщение

user ®

Стаж: 12 лет

Сообщений: 15092

Пост Пост: #1 от 07-Дек-2014 11:50

[Цитировать]

Раджа Хиндустани / Raja Hindustani
Страна: Индия
Жанр: Боевик, драма, мелодрама, комедия
Год выпуска: 1996
Продолжительность: 02:50:17
Перевод: Профессиональный (многоголосый закадровый) Zee Tv
Cубтитры: нет
Режиссер: Дармеш Даршан / Dharmesh Darshan
В ролях: Аамир Кхан, Каришма Капур, Суреш Оберой, Джонни Левер, Навнит Нишан, Виру Кришнан, Кунал Кхему, Прамод Мутху, Мохниш Бехл, Тику Талсания, Фарида Джалал, Арчана Пуран Сингх, Калпана Айер, Пратибха Синха, Разак Кхан
Описание: Водитель такси Раджа (Аамир Кхан) и красавица Арти (Каришма Капур) любят друг друга. Несмотря на запрет со стороны состоятельных родителей Арти, молодые люди расписываются и переезжают к Радже в деревню. Однако родственники Раджи также не одобряют его выбор и постоянно пытаются поссорить его с любимой девушкой…
Доп. информация: Релиз: Кинозал.ТВ
Сведение звука : oktober (Спасибо!)
Сэмпл: http://multi-up.com/1018007
Качество видео: DVDRip
Формат видео: AVI
Видео: XviD Final 1.0.3 (build 37), 608x272 (2.24:1), 25 fps, 1006 kbps avg
Аудио: AC3 Dolby Digital, 48 kHz, 2/0 (L,R) ch, 192 kbps
MediaInfo
General
Complete name : F:\Radzha.Hindustani.1996.XviD.DVDRip.Oktober.avi
Format : AVI
Format/Info : Audio Video Interleave
File size : 1.44 GiB
Duration : 2h 50mn
Overall bit rate : 1 208 Kbps
Writing application : VirtualDubMod 1.5.10.2 (build 2540/release)
Writing library : VirtualDubMod build 2540/release
Video
ID : 0
Format : MPEG-4 Visual
Format profile : AdvancedSimple@L5
Format settings, BVOP : Yes
Format settings, QPel : No
Format settings, GMC : No warppoints
Format settings, Matrix : Default (H.263)
Muxing mode : Packed bitstream
Codec ID : XVID
Codec ID/Hint : XviD
Duration : 2h 50mn
Bit rate : 1 007 Kbps
Width : 608 pixels
Height : 272 pixels
Display aspect ratio : 2.25
Frame rate : 25.000 fps
Resolution : 24 bits
Colorimetry : 4:2:0
Scan type : Progressive
Bits/(Pixel*Frame) : 0.244
Stream size : 1.20 GiB (83%)
Writing library : XviD 1.0.3 (UTC 2004-12-20)
Audio
ID : 1
Format : AC-3
Format/Info : Audio Coding 3
Codec ID : 2000
Duration : 2h 50mn
Bit rate mode : Constant
Bit rate : 192 Kbps
Channel(s) : 2 channels
Channel positions : L R
Sampling rate : 48.0 KHz
Stream size : 234 MiB (16%)
Alignment : Split accross interleaves
Interleave, duration : 40 ms (1.00 video frame)
Interleave, preload duration : 500 ms
Скриншоты
Скачать

Скачать торрент! Раджа Хиндустани / Raja Hindustani (Дармеш Даршан / Dharmesh Darshan) [1996, Индия, Боевик, драма, мелодрама, комедия, DVDRip] MVO (Zee Tv)

Как скачивать? · Что такое торрент? · Рейтинг и ограничения

Сайт не распространяет и не хранит электронные версии произведений, а лишь предоставляет доступ к создаваемому пользователями каталогу ссылок на торрент-файлы, которые содержат только списки хеш-сумм

[Профиль] [ЛС]
Показать сообщения:    
Ответить на тему

Текущее время: Сегодня 12:29

Часовой пояс: GMT + 4



Вы не можете начинать темы
Вы не можете отвечать на сообщения
Вы не можете редактировать свои сообщения
Вы не можете удалять свои сообщения
Вы не можете голосовать в опросах
Вы не можете прикреплять файлы к сообщениям
Вы не можете скачивать файлы