Заговоренный рис / Nasi Tangas / Nasi KangKang (Хасим Реджаб / Hashim Redjab) [2014, Малайзия, Ужасы, DVDRip] MVO

Ответить на тему
 
Автор Сообщение

user ®

Стаж: 13 лет

Сообщений: 15071

Пост Пост: #1 от 04-Дек-2014 13:20

[Цитировать]

Заговоренный рис / Nasi Tangas / Nasi KangKang
Страна: Малайзия
Жанр: Ужасы
Год выпуска: 2014
Продолжительность: 01:26:19
Перевод: Любительский (многоголосый закадровый) [Izanami, DeadSno & den904]
Оригинальная аудиодорожка: нет
Cубтитры: нет
Режиссер: Хасим Реджаб / Hashim Redjab
В ролях:Азван Комбос, Шима Анвар, Адиба Юнус, Делимавати, Герман Тино
Описание: Мира и Хайри влюблены друг в друга и собираются пожениться. Но в это радостное время, Мира невесела, а предсвадебные приготовления омрачают мысли о том, что все свободное время ее жених проводит со своей подругой и партнером по бизнесу, Фатин. Видя беспокойство дочери, наученная горьким опытом своей семейной жизни, мать Миры советует ей обратиться к колдуну, дабы навести на жениха приворотное заклятье, называемое "наси канкан". "Наси канкан" - это особым способом приготовленный рис, который должен съесть только тот, кому предназначено это заклятье, иначе последствия будут непредсказуемыми...
Сэмпл
Качество: DVDRip
Контейнер: AVI
Видео: 720x368 (1.96:1), 23.976 fps, XviD build 50 ~2065 kbps avg, 0.33 bit/pixel
Аудио: 48 kHz, AC3 Dolby Digital, 2/0 (L,R) ch, ~192 kbps

MI
Общее
Полное имя : C:\Users\Пользователь\Downloads\Nasi Tangas.2014.DVDRip.avi
Формат : AVI
Формат/Информация : Audio Video Interleave
Размер файла : 1,37 Гбайт
Продолжительность : 1 ч. 26 м.
Общий поток : 2267 Кбит/сек
Программа кодирования : VirtualDubMod 1.5.10.2 (build 2542/release)
Библиотека кодирования : VirtualDubMod build 2542/release
Видео
Идентификатор : 0
Формат : MPEG-4 Visual
Профиль формата : Advanced Simple@L5
Параметр BVOP формата : 2
Параметр QPel формата : Нет
Параметр GMC формата : Без точки перехода
Параметр матрицы формата : Default (MPEG)
Идентификатор кодека : XVID
Идентификатор кодека/Подсказка : XviD
Продолжительность : 1 ч. 26 м.
Битрейт : 2066 Кбит/сек
Ширина : 720 пикселей
Высота : 368 пикселей
Соотношение сторон : 1,957
Частота кадров : 23,976 кадра/сек
Цветовое пространство : YUV
Субдискретизация насыщенности : 4:2:0
Битовая глубина : 8 бит
Тип развёртки : Прогрессивная
Метод сжатия : С потерями
Бит/(Пиксели*Кадры) : 0.325
Размер потока : 1,25 Гбайт (91%)
Библиотека кодирования : XviD 1.2.1 (UTC 2008-12-04)
Аудио
Идентификатор : 1
Формат : AC-3
Формат/Информация : Audio Coding 3
Расширение режима : CM (complete main)
Параметр Endianness формата : Big
Идентификатор кодека : 2000
Продолжительность : 1 ч. 26 м.
Вид битрейта : Постоянный
Битрейт : 192 Кбит/сек
Каналы : 2 канала
Расположение каналов : Front: L R
Частота : 48,0 КГц
Битовая глубина : 16 бит
Метод сжатия : С потерями
Размер потока : 119 Мбайт (8%)
Выравнивание : Разделение по промежуткам
Продолжительность промежутка : 42 мс. (1,00 видеокадр)
Время предзагрузки промежутка : 500 мс.
Скриншоты
Скачать

Скачать торрент! Заговоренный рис / Nasi Tangas / Nasi KangKang (Хасим Реджаб / Hashim Redjab) [2014, Малайзия, Ужасы, DVDRip] MVO

Как скачивать? · Что такое торрент? · Рейтинг и ограничения

Сайт не распространяет и не хранит электронные версии произведений, а лишь предоставляет доступ к создаваемому пользователями каталогу ссылок на торрент-файлы, которые содержат только списки хеш-сумм

[Профиль] [ЛС]
Показать сообщения:    
Ответить на тему

Текущее время: Сегодня 17:25

Часовой пояс: GMT + 4



Вы не можете начинать темы
Вы не можете отвечать на сообщения
Вы не можете редактировать свои сообщения
Вы не можете удалять свои сообщения
Вы не можете голосовать в опросах
Вы не можете прикреплять файлы к сообщениям
Вы не можете скачивать файлы