Класс коррекции (Иван И. Твердовский) [2014, Россия, драма, WEB-DL 1080p]

Ответить на тему
 
Автор Сообщение

user ®

Стаж: 7 лет 7 месяцев

Сообщений: 20008

Пост Пост: #1 от 03-Дек-2014 05:55

[Цитировать]

Класс коррекции
Страна: Россия
Студия: Новые люди, A Company
Жанр: драма
Год выпуска: 2014
Продолжительность: 01:28:35
Режиссер: Иван И. Твердовский
В ролях: Мария Поезжаева, Никита Кукушкин, Филипп Авдеев, Ольга Лапшина, Наталья Павленкова, Юлия Серина, Артем Маркарьян, Мария Урядова, Наталья Домерецкая, Ирина Вилкова
Описание: После многолетнего домашнего обучения, девочка-колясочница Лена Чехова переводится в среднюю общеобразовательную школу, в класс коррекционного обучения, объединивший в себе детей с различными отклонениями. Там она не только встречает свою первую любовь, но и впервые в своей жизни сталкивается с жестокостью окружающего мира.
Релиз: by Dreamcatcher
Сэмпл: http://multi-up.com/1016722
Тип релиза: WEB-DL 1080p
Контейнер: MKV
Видео: 1920x1080 at 25.000 fps, MPEG-4 AVC, ~5000 kbps avg
Аудио: Russian: 48 kHz, AC3, 3/2 (L,C,R,l,r) + LFE ch, ~384.00 kbps avg

MediaInfo
General
Unique ID : 201450178574758574183400703930074095702 (0x978DE4A3A3819BE7BEC77A5F2D676056)
Complete name : D:\Видео\Movies\Corrections.Class.2014.1080p.WEB-DL.Rus.HDCLUB.mkv
Format : Matroska
Format version : Version 2
File size : 3.50 GiB
Duration : 1h 28mn
Overall bit rate : 5 657 Kbps
Movie name : Corrections Class (2014) - Release for HDCLUB
Encoded date : UTC 2014-12-01 00:04:41
Writing application : mkvmerge v3.4.0 ('Rapunzel') built on May 15 2010 09:38:20
Writing library : libebml v0.8.0 + libmatroska v0.9.0
Video
ID : 1
Format : AVC
Format/Info : Advanced Video Codec
Format profile : High@L4.0
Format settings, CABAC : Yes
Format settings, ReFrames : 4 frames
Codec ID : V_MPEG4/ISO/AVC
Duration : 1h 28mn
Bit rate : 5 160 Kbps
Width : 1 920 pixels
Height : 1 080 pixels
Display aspect ratio : 16:9
Frame rate mode : Constant
Frame rate : 25.000 fps
Color space : YUV
Chroma subsampling : 4:2:0
Bit depth : 8 bits
Scan type : Progressive
Bits/(Pixel*Frame) : 0.100
Stream size : 3.19 GiB (91%)
Title : Corrections Class (2014) - Release for HDCLUB
Language : Russian
Default : Yes
Forced : No
Color primaries : BT.709
Transfer characteristics : BT.709
Matrix coefficients : BT.709
Audio
ID : 2
Format : AC-3
Format/Info : Audio Coding 3
Mode extension : CM (complete main)
Format settings, Endianness : Big
Codec ID : A_AC3
Duration : 1h 28mn
Bit rate mode : Constant
Bit rate : 384 Kbps
Channel count : 6 channels
Channel positions : Front: L C R, Side: L R, LFE
Sampling rate : 48.0 KHz
Bit depth : 16 bits
Compression mode : Lossy
Stream size : 243 MiB (7%)
Title : AC3 5.1 @ 384 kbps
Language : Russian
Default : Yes
Forced : No
Menu
00:00:00.000 : en:Глава 1
00:05:51.000 : en:Глава 2
00:10:52.000 : en:Глава 3
00:16:04.000 : en:Глава 4
00:22:21.000 : en:Глава 5
00:25:46.000 : en:Глава 6
00:31:04.000 : en:Глава 7
00:37:43.000 : en:Глава 8
00:42:01.000 : en:Глава 9
00:48:03.000 : en:Глава 10
00:54:26.000 : en:Глава 11
01:00:18.000 : en:Глава 12
01:03:36.000 : en:Глава 13
01:06:12.000 : en:Глава 14
01:10:41.000 : en:Глава 15
01:15:35.000 : en:Глава 16
01:21:24.000 : en:Глава 17
Скриншоты
Скачать

Скачать торрент!

Как скачивать? · Что такое торрент? · Рейтинг и ограничения

Сайт не распространяет и не хранит электронные версии произведений, а лишь предоставляет доступ к создаваемому пользователями каталогу ссылок на торрент-файлы, которые содержат только списки хеш-сумм

[Профиль] [ЛС]
Показать сообщения:    
Ответить на тему

Текущее время: Сегодня 04:03

Часовой пояс: GMT + 4



Вы не можете начинать темы
Вы не можете отвечать на сообщения
Вы не можете редактировать свои сообщения
Вы не можете удалять свои сообщения
Вы не можете голосовать в опросах
Вы не можете прикреплять файлы к сообщениям
Вы не можете скачивать файлы