Жуткая любовь / Пугающий роман / Spellbound / Eerie Romance / Chilling Romance / O-ssak-han Yeon-ae (Хванг Ин Хо / In-ho Hwang) [2011, Южная Корея, комедия, мелодрама, мистика, HDRip] DVO [GREEN TEA & КиНаТаН]

Ответить на тему
 
Автор Сообщение

user ®

Стаж: 13 лет

Сообщений: 15071

Пост Пост: #1 от 01-Дек-2014 18:20

[Цитировать]

Жуткая любовь / Пугающий роман / Spellbound / Eerie Romance / Chilling Romance / O-ssak-han Yeon-ae- -Страна: Южная Корея
Жанр: комедия, мелодрама, мистика
Год выпуска: 2011
Продолжительность: 01:53:18-Перевод: Любительский (двухголосый закадровый) [GREEN TEA & КиНаТаН]-Cубтитры: нет
Оригинальная аудиодорожка: нет
Режиссер: Хванг Ин Хо / In-ho Hwang
В ролях: Сон Ё Чжин, Мин-ки Ли, Пак Хеол Мин, Ким Хён Сок, Юн Чжи Мин...
Описание: Йо Ри замкнутая и нелюдимая девушка, а все от того, что у нее есть дар… а может проклятие — с детства она может видеть призраков. Из-за этого с людьми, находящимся рядом с ней, происходят очень неприятные случаи. Самый обычный фокусник Чжо Го встречает ее на одном из своих выступлений и вместе они организуют волшебное шоу ужасов, которое имеет колоссальный успех. Вскоре, молодой человек влюбляется в девушку, да только ее призраки совсем от этого не в восторге…
Релиз от -
Сэмпл: http://multi-up.com/1016614
Качество видео: HDRip
Формат видео: AVI
Видео: MPEG-4 Visual at 787 Кбит/сек; 656 x 352 (1.864) at 23.976 fps
Аудио: MPEG Audio at 128 Кбит/сек; 2 канала, 48,0 КГц
Автор -
MediaInfo
Общее
Полное имя : D:\Фильмы\Азиатские\Жуткая любовь\Spellbound.2011.HDRip.XviD.745MB. rip by [Assassin's Creed].avi
Формат : AVI
Формат/Информация : Audio Video Interleave
Размер файла : 749 Мбайт
Продолжительность : 1 ч. 53 м.
Общий поток : 924 Кбит/сек
Программа кодирования : VirtualDubMod 1.5.10.2 (build 2540/release)
Библиотека кодирования : VirtualDubMod build 2540/release
Видео
Идентификатор : 0
Формат : MPEG-4 Visual
Профиль формата : Advanced Simple@L5
Параметр BVOP формата : 1
Параметр QPel формата : Нет
Параметр GMC формата : Без точки перехода
Параметр матрицы формата : Default (MPEG)
Идентификатор кодека : XVID
Идентификатор кодека/Подсказка : XviD
Продолжительность : 1 ч. 53 м.
Битрейт : 787 Кбит/сек
Ширина : 656 пикселей
Высота : 352 пикселя
Соотношение сторон : 1,85:1
Частота кадров : 23,976 кадра/сек
Цветовое пространство : YUV
Субдискретизация насыщенности : 4:2:0
Битовая глубина : 8 бит
Тип развёртки : Прогрессивная
Метод сжатия : С потерями
Бит/(Пиксели*Кадры) : 0.142
Размер потока : 638 Мбайт (85%)
Библиотека кодирования : XviD 1.2.1 (UTC 2008-12-04)
Аудио
Идентификатор : 1
Формат : MPEG Audio
Версия формата : Version 1
Профиль формата : Layer 3
Идентификатор кодека : 55
Идентификатор кодека/Подсказка : MP3
Продолжительность : 1 ч. 53 м.
Вид битрейта : Постоянный
Битрейт : 128 Кбит/сек
Каналы : 2 канала
Частота : 48,0 КГц
Метод сжатия : С потерями
Размер потока : 104 Мбайт (14%)
Выравнивание : Соединение по промежуткам
Продолжительность промежутка : 42 мс. (1,00 видеокадр)
Время предзагрузки промежутка : 504 мс.
Библиотека кодирования : LAME3.99r
Настройки программы : -m s -V 4 -q 2 -lowpass 17 -b 128
Скриншот c названием фильма Скриншоты
Скачать

Скачать торрент! Жуткая любовь / Пугающий роман / Spellbound / Eerie Romance / Chilling Romance / O-ssak-han Yeon-ae (Хванг Ин Хо / In-ho Hwang) [2011, Южная Корея, комедия, мелодрама, мистика, HDRip] DVO [GREEN TEA & КиНаТаН]

Как скачивать? · Что такое торрент? · Рейтинг и ограничения

Сайт не распространяет и не хранит электронные версии произведений, а лишь предоставляет доступ к создаваемому пользователями каталогу ссылок на торрент-файлы, которые содержат только списки хеш-сумм

[Профиль] [ЛС]
Показать сообщения:    
Ответить на тему

Текущее время: Сегодня 20:16

Часовой пояс: GMT + 4



Вы не можете начинать темы
Вы не можете отвечать на сообщения
Вы не можете редактировать свои сообщения
Вы не можете удалять свои сообщения
Вы не можете голосовать в опросах
Вы не можете прикреплять файлы к сообщениям
Вы не можете скачивать файлы