Приключения Тинтина: Дело Турнесоля / Les Aventures de Tintin: L\'Affaire Tournesol / The Adventures of Tintin. The Calculus Affair (Рей Госсенс / Ray Goossens) [1964, приключения, детектив, семейный, DVB] DUB

Ответить на тему
 
Автор Сообщение

user ®

Стаж: 13 лет

Сообщений: 15041

Пост Пост: #1 от 01-Дек-2014 01:05

[Цитировать]

Приключения Тинтина: Дело Турнесоля / Les Aventures de Tintin: L'Affaire Tournesol / The Adventures of Tintin. The Calculus Affair- Страна: Бельгия
Жанр: приключения, детектив, семейный
Продолжительность: 00:57:00
Год выпуска: 1964
Перевод: Профессиональный (дублированный)
Русские субтитры: нет-Режиссёр: Рей Госсенс / Ray Goossens- | Релиз: -Описание: В имении Муленсар начинают происходит необъяснимые вещи — трескаются зеркала, разлетаются вдребезги окна, от старинных китайских ваз остаются одни черепки. Чудеса прекращаются, как только профессор Турнесоль покидает свою лабораторию и отбывает на научную конференцию в Женеву.
Тинтин подозревает, что во всём виноваты эксперименты Турнесоля. Они с капитаном отправляются в лабораторию, где сталкиваются с подозрительным иностранцем в маске. Сбив капитана с ног, незнакомцу удаётся скрыться — но только после того, как Милу оторвал часть кармана его плаща, откуда выпала пачка сигарет. На ней друзья прочитали название женевской гостиницы, где собирался остановиться профессор. Опасаясь за безопасность своего друга, Тинтин и капитан направляются в Женеву. В Швейцарии профессор поочерёдно попадает в руки конкурирующих агентов спецслужб Сильдавии и Бордурии, которые пытаются выведать у него чертежи секретного инфразвукового оружия, способного разрушать предметы.-Семпл: http://sendfile.su/1055031-Качество: DVB (Канал "Gulli")
Формат: MPG
Видео: 720x576 (4:3) @ 768x576, 25.000 fps, MPEG-2 Video, ~2510 Kbps, 0.242 bits/pixel
Аудио: Русский, 48.0 KHz, MPEG-1 Audio layer 2, 2 ch, 192 Kbps
Субтитры: нет
Подробные технические данные
GeneralComplete name : Les Aventures de Tintin - L'Affaire Tournesol 1964 DUB Gulli.mpgFormat : MPEG-PSFile size : 1.10 GiBDuration : 57mn 0sOverall bit rate mode : VariableOverall bit rate : 2 757 Kbps
VideoID : 224 (0xE0)Format : MPEG VideoFormat version : Version 2Format profile : Main@MainFormat settings, BVOP : YesFormat settings, Matrix : CustomFormat settings, GOP : VariableFormat settings, picture structure : FrameDuration : 57mn 0sBit rate mode : VariableBit rate : 2 510 KbpsMaximum bit rate : 15.0 MbpsWidth : 720 pixelsHeight : 576 pixelsDisplay aspect ratio : 4:3Frame rate : 25.000 fpsStandard : PALColor space : YUVChroma subsampling : 4:2:0Bit depth : 8 bitsScan type : InterlacedScan order : Top Field FirstCompression mode : LossyBits/(Pixel*Frame) : 0.242Time code of first frame : 00:00:00:00Time code source : Group of pictures headerGOP, Open/Closed : OpenStream size : 1 023 MiB (91%)GOP, Open/Closed of first frame : Closed
AudioID : 192 (0xC0)Format : MPEG AudioFormat version : Version 1Format profile : Layer 2Duration : 57mn 0sBit rate mode : ConstantBit rate : 192 KbpsChannel(s) : 2 channelsSampling rate : 48.0 KHzCompression mode : LossyStream size : 78.3 MiB (7%)
Скриншоты
Скачать

Скачать торрент! Приключения Тинтина: Дело Турнесоля / Les Aventures de Tintin: L\'Affaire Tournesol / The Adventures of Tintin. The Calculus Affair (Рей Госсенс / Ray Goossens) [1964, приключения, детектив, семейный, DVB] DUB

Как скачивать? · Что такое торрент? · Рейтинг и ограничения

Сайт не распространяет и не хранит электронные версии произведений, а лишь предоставляет доступ к создаваемому пользователями каталогу ссылок на торрент-файлы, которые содержат только списки хеш-сумм

[Профиль] [ЛС]
Показать сообщения:    
Ответить на тему

Текущее время: Сегодня 00:21

Часовой пояс: GMT + 4



Вы не можете начинать темы
Вы не можете отвечать на сообщения
Вы не можете редактировать свои сообщения
Вы не можете удалять свои сообщения
Вы не можете голосовать в опросах
Вы не можете прикреплять файлы к сообщениям
Вы не можете скачивать файлы