Расплата за преступление / Aakhree Raasta (К. Бхагьяраджа / K. Bhagyaraj) [1986, Индия, Боевик, триллер, драма, DVDRip] MVO (Zee Tv)

Ответить на тему
 
Автор Сообщение

user ®

Стаж: 12 лет

Сообщений: 15092

Пост Пост: #1 от 24-Ноя-2014 01:40

[Цитировать]

Расплата за преступление / Aakhree Raasta
Страна: Индия
Жанр: Боевик, триллер, драма
Год выпуска: 1986
Продолжительность: 02:34:45
Перевод: Профессиональный (многоголосый закадровый) Zee Tv
Cубтитры: нет
Режиссер: К. Бхагьяраджа / K. Bhagyaraj
В ролях: Амитабх Баччан, Шридеви, Джая Прада, Анупам Кхер, Ом Шивпури, Далип Тахил, Садашив Амрапуркар, Бхарат Капур, Умеш Шарма, Виджу Кхоте, Гурбаччан Сингх, Виджай Кумар, Ананд, Ашок Кумар, Хамид, Паттабхи, Сварадж Кумар, Киран, Дилип, Ашок Шив Пури, Читра Шарма, Бинду Мадхави
Описание: Богатая красавица Мэри у свадебного алтаря признается, что любит бедного парня. Ради счастья с любимым она отказывается от наследства. Мэри и Дэвид поженились, вскоре у них родился сын. Но злой рок не дремлет. Богачу приглянулась Мэри, он хитростью заманивает ее к себе. Молодая женщина подвергается насилию. Не в силах выдержать позора, Мэри накладывает на себя руки. Однако несчастья на этом не заканчиваются. Вместо справедливого суда Дэвида приговаривают к тюремному заключению. В тюрьме он дает себе клятву, что, выйдя на свободу, он обязательно отыщет своего сына и отомстить за жену.
Доп. информация: Релиз: Кинозал.ТВ
Запись и сведение звука: oktober (Спасибо!)
Заикания отсутствуют.
Сэмпл: http://multi-up.com/1015099
Качество видео: DVDRip
Формат видео: AVI
Видео: XviD build 50, 624x480 (1.30:1), 23.976 fps, 1150 kbps avg
Аудио: AC3 Dolby Digital, 48 kHz, 2/0 (L,R) ch, 192 kbps
MediaInfo
General
Complete name : D:\Rasplata.Za.Prestuplenie.1986.XviD.DVDRip.Oktober.avi
Format : AVI
Format/Info : Audio Video Interleave
File size : 1.46 GiB
Duration : 2h 34mn
Overall bit rate : 1 352 Kbps
Writing application : VirtualDubMod 1.5.10.2 (build 2540/release)
Writing library : VirtualDubMod build 2540/release
Video
ID : 0
Format : MPEG-4 Visual
Format profile : AdvancedSimple@L5
Format settings, BVOP : Yes
Format settings, QPel : No
Format settings, GMC : No warppoints
Format settings, Matrix : Default (H.263)
Codec ID : XVID
Codec ID/Hint : XviD
Duration : 2h 34mn
Bit rate : 1 151 Kbps
Width : 624 pixels
Height : 480 pixels
Display aspect ratio : 1.300
Frame rate : 23.976 fps
Resolution : 24 bits
Colorimetry : 4:2:0
Scan type : Progressive
Bits/(Pixel*Frame) : 0.160
Stream size : 1.24 GiB (85%)
Writing library : XviD 1.2.1 (UTC 2008-12-04)
Audio
ID : 1
Format : AC-3
Format/Info : Audio Coding 3
Codec ID : 2000
Duration : 2h 34mn
Bit rate mode : Constant
Bit rate : 192 Kbps
Channel(s) : 2 channels
Channel positions : L R
Sampling rate : 48.0 KHz
Stream size : 213 MiB (14%)
Alignment : Split accross interleaves
Interleave, duration : 42 ms (1.00 video frame)
Interleave, preload duration : 500 ms
Скриншоты Сравнения
[url=http://***/forum/viewtopic.php?t=2746096]http://***/forum/viewtopic.php?t=2746096[/url] => видеоряд тотже, перевод другой
Семпл мой http://multi-up.com/1015099
Семпл с раздачи Unknown http://multi-up.com/1015104
Скачать

Скачать торрент! Расплата за преступление / Aakhree Raasta (К. Бхагьяраджа / K. Bhagyaraj) [1986, Индия, Боевик, триллер, драма, DVDRip] MVO (Zee Tv)

Как скачивать? · Что такое торрент? · Рейтинг и ограничения

Сайт не распространяет и не хранит электронные версии произведений, а лишь предоставляет доступ к создаваемому пользователями каталогу ссылок на торрент-файлы, которые содержат только списки хеш-сумм

[Профиль] [ЛС]
Показать сообщения:    
Ответить на тему

Текущее время: Сегодня 17:49

Часовой пояс: GMT + 4



Вы не можете начинать темы
Вы не можете отвечать на сообщения
Вы не можете редактировать свои сообщения
Вы не можете удалять свои сообщения
Вы не можете голосовать в опросах
Вы не можете прикреплять файлы к сообщениям
Вы не можете скачивать файлы