Ради любви / For Love\'s Sake / Ai to makoto (Такаси Миике / Takashi Miike) [2012, Япония, мюзикл, мелодрама, HDRip] VO [GREEN TEA]

Ответить на тему
 
Автор Сообщение

user ®

Стаж: 13 лет

Сообщений: 15071

Пост Пост: #1 от 21-Ноя-2014 03:50

[Цитировать]

Ради любви / For Love's Sake / Ai to makoto- -Страна: Япония
Жанр: мюзикл, мелодрама
Год выпуска: 2012
Продолжительность: 02:13:35-Перевод: Одноголосый закадровый [GREEN TEA] - Екатерина Юрьева-Cубтитры: нет
Оригинальная аудиодорожка: нет
Режиссер: Такаси Миике / Takashi Miike
В ролях: Сатоси Цумабуки, Эми Такеи, Такуми Сайто, Ито Оно, Масатика Итимура, Ё Хитото, Кимико Ё, Сэйсиро Като, Сакура Андо, Цуёси Ихара...
Описание: Макото — трудный подросток с преступными наклонностями. Аи — примерная девочка из порядочной семьи. Однажды при случайной встрече Аи по шраму на лбу узнает в Макото мальчика, которому в детстве случайно нанесла травму, катаясь на лыжах. В этом шраме Аи теперь видит причину криминальных наклонностей Макото. Чувствуя ответственность, Аи проникается идеей вновь наставить его на истинный путь. В тайне от всех она организует перевод мальчика в свою школу Аобадай.
Но ее усилия напрасны: после очередной стычки с полицией Макото исключают из престижной школы. Он попадает в школу Ханазоно, известную как заведение для трудных подростков, где кулаками быстро достигает авторитета и заводит дружбу с «королевой» Ханазоно Юки. Аи не опускает рук и, несмотря на возражения родителей, тоже переходит в эту школу. С появлением Аи Юки понимает, что влюблена в Макото, однако ее чувства не взаимны. Тогда от разочарования Юки объявляет войну Макото и берет Аи в заложницы. Сможет ли Макото победить в этой схватке и спасти жизнь Аи?
Релиз от -
Сэмпл: http://multi-up.com/1014501
Качество видео: HDRip
Формат видео: AVI
Видео: MPEG-4 Visual at 1369 Кбит/сек; 720 x 304 (2.368) at 23.976 fps
Аудио: AC-3 at 192 Кбит/сек; 2 канала, 48,0 КГц
Автор -
MediaInfo
Общее
Полное имя : D:\Фильмы\Азиатские\Ради любви\For Love's Sake.2012.HDRip.XviD.1400MB. rip by [Assassin's Creed].avi
Формат : AVI
Формат/Информация : Audio Video Interleave
Размер файла : 1,47 Гбайт
Продолжительность : 2 ч. 13 м.
Общий поток : 1570 Кбит/сек
Программа кодирования : VirtualDubMod 1.5.10.2 (build 2540/release)
Библиотека кодирования : VirtualDubMod build 2540/release
Видео
Идентификатор : 0
Формат : MPEG-4 Visual
Профиль формата : Advanced Simple@L5
Параметр BVOP формата : 1
Параметр QPel формата : Нет
Параметр GMC формата : Без точки перехода
Параметр матрицы формата : Default (MPEG)
Идентификатор кодека : XVID
Идентификатор кодека/Подсказка : XviD
Продолжительность : 2 ч. 13 м.
Битрейт : 1369 Кбит/сек
Ширина : 720 пикселей
Высота : 304 пикселя
Соотношение сторон : 2,35:1
Частота кадров : 23,976 кадра/сек
Цветовое пространство : YUV
Субдискретизация насыщенности : 4:2:0
Битовая глубина : 8 бит
Тип развёртки : Прогрессивная
Метод сжатия : С потерями
Бит/(Пиксели*Кадры) : 0.261
Размер потока : 1,28 Гбайт (87%)
Библиотека кодирования : XviD 1.2.1 (UTC 2008-12-04)
Аудио
Идентификатор : 1
Формат : AC-3
Формат/Информация : Audio Coding 3
Расширение режима : CM (complete main)
Параметр Endianness формата : Big
Идентификатор кодека : 2000
Продолжительность : 2 ч. 13 м.
Вид битрейта : Постоянный
Битрейт : 192 Кбит/сек
Каналы : 2 канала
Расположение каналов : Front: L R
Частота : 48,0 КГц
Битовая глубина : 16 бит
Метод сжатия : С потерями
Размер потока : 183 Мбайт (12%)
Выравнивание : Разделение по промежуткам
Продолжительность промежутка : 42 мс. (1,00 видеокадр)
Время предзагрузки промежутка : 500 мс.
Скриншот c названием фильма Скриншоты
Скачать

Скачать торрент! Ради любви / For Love\'s Sake / Ai to makoto (Такаси Миике / Takashi Miike) [2012, Япония, мюзикл, мелодрама, HDRip] VO [GREEN TEA]

Как скачивать? · Что такое торрент? · Рейтинг и ограничения

Сайт не распространяет и не хранит электронные версии произведений, а лишь предоставляет доступ к создаваемому пользователями каталогу ссылок на торрент-файлы, которые содержат только списки хеш-сумм

[Профиль] [ЛС]
Показать сообщения:    
Ответить на тему

Текущее время: Сегодня 20:49

Часовой пояс: GMT + 4



Вы не можете начинать темы
Вы не можете отвечать на сообщения
Вы не можете редактировать свои сообщения
Вы не можете удалять свои сообщения
Вы не можете голосовать в опросах
Вы не можете прикреплять файлы к сообщениям
Вы не можете скачивать файлы