Оз: Возвращение в Изумрудный Город / Legends of Oz: Dorothy\'s Return (Уилл Финн / Will Finn, Дэн Ст. Пьер / Dan St. Pierre) [2013, мультфильм, мюзикл, семейный, HDRip] DUB

Ответить на тему
 
Автор Сообщение

user ®

Стаж: 11 лет

Сообщений: 15145

Пост Пост: #1 от 21-Ноя-2014 00:40

[Цитировать]

Оз: Возвращение в Изумрудный Город
Legends of Oz: Dorothy's Return
«There's trouble in OZ...» Год выпуска: 2013
Страна: США, Индия
Жанр: мультфильм, мюзикл, семейный
Продолжительность: 01:32:02
Перевод: Профессиональный (Дублированный)
субтитры: отсутствуют-Режиссёр: Уилл Финн : Will Finn, Дэн Ст. Пьер : Dan St. Pierre-Роли озвучивали: Лиа Мишель, Патрик Стюарт, Джеймс Белуши, Дэн Эйкройд, Келси Грэммер, Меган Хилти, Хью Дэнси, Оливер Платт, Бернадетт Питерс, Мартин Шорт
Роли дублировали: Полина Гагарина, Алексей Чумаков, Александр Головчанский, Станислав Дужников, Гарик Харламов-Описание: Дороти снова магическим образом переносится в страну Оз, чтобы спасти от беды ее жителей. Но оказывается, что старые друзья Дороти — Страшила, Железный Дровосек и Храбрый Лев — исчезли. Путешествуя по стране в поисках своих друзей, Дороти встречает новых попутчиков — Капитана Зефира, Фарфоровую Принцессу и филина Савву. Дороти должна помочь таким разным героям объединиться, чтобы одолеть нового злодея — шута Джестера, который хочет захватить страну Оз при помощи черной магии.- раздача от: -Качество: HDRip
Формат: AVI
Видео кодек: XviD
Аудио кодек: AC3
Видео: 720x400 (1.80:1), 23.976 fps, XviD build 50 ~1814 kbps avg, 0.26 bit/pixel
Аудио: 48 kHz, AC3 Dolby Digital, 3/2 (L,C,R,l,r) + LFE ch, ~448 kbps MediaInfo
Общее
Полное имя : D:\ФИЛЬМ\Оз\Legends of Oz Dorothy's Return.2013 .HDRip.avi
Формат : AVI
Формат/Информация : Audio Video Interleave
Размер файла : 1,46 Гбайт
Продолжительность : 1 ч. 32 м.
Общий поток : 2272 Кбит/сек
Программа кодирования : VirtualDubMod 1.5.10.3 | www.virtualdub-fr.org || (build 2550/release)
Библиотека кодирования : VirtualDubMod build 2550/release
Видео
Идентификатор : 0
Формат : MPEG-4 Visual
Профиль формата : Advanced Simple@L5
Параметр BVOP формата : 2
Параметр QPel формата : Нет
Параметр GMC формата : Без точки перехода
Параметр матрицы формата : Default (MPEG)
Идентификатор кодека : XVID
Идентификатор кодека/Подсказка : XviD
Продолжительность : 1 ч. 32 м.
Битрейт : 1815 Кбит/сек
Ширина : 720 пикселей
Высота : 400 пикселей
Соотношение сторон : 16:9
Частота кадров : 23,976 кадра/сек
Цветовое пространство : YUV
Субдискретизация насыщенности : 4:2:0
Битовая глубина : 8 бит
Тип развёртки : Прогрессивная
Метод сжатия : С потерями
Бит/(Пиксели*Кадры) : 0.263
Размер потока : 1,17 Гбайт (80%)
Библиотека кодирования : XviD 1.2.1 (UTC 2008-12-04)
Аудио
Идентификатор : 1
Формат : AC-3
Формат/Информация : Audio Coding 3
Расширение режима : CM (complete main)
Параметр Endianness формата : Big
Идентификатор кодека : 2000
Продолжительность : 1 ч. 32 м.
Вид битрейта : Постоянный
Битрейт : 448 Кбит/сек
Каналы : 6 каналов
Расположение каналов : Front: L C R, Side: L R, LFE
Частота : 48,0 КГц
Битовая глубина : 16 бит
Метод сжатия : С потерями
Размер потока : 295 Мбайт (20%)
Выравнивание : Разделение по промежуткам
Продолжительность промежутка : 42 мс. (1,00 видеокадр)
Время предзагрузки промежутка : 500 мс.
____________________________________________
Стою на раздаче до 5 дней.
Просьба скачавшим как можно дольше не покидать раздачу!
ВСЕМ ПРИЯТНОГО ПРОСМОТРА!_________________________________________
Скачать

Скачать торрент! Оз: Возвращение в Изумрудный Город / Legends of Oz: Dorothy\'s Return (Уилл Финн / Will Finn, Дэн Ст. Пьер / Dan St. Pierre) [2013, мультфильм, мюзикл, семейный, HDRip] DUB

Как скачивать? · Что такое торрент? · Рейтинг и ограничения

Сайт не распространяет и не хранит электронные версии произведений, а лишь предоставляет доступ к создаваемому пользователями каталогу ссылок на торрент-файлы, которые содержат только списки хеш-сумм

[Профиль] [ЛС]
Показать сообщения:    
Ответить на тему

Текущее время: Сегодня 18:58

Часовой пояс: GMT + 4



Вы не можете начинать темы
Вы не можете отвечать на сообщения
Вы не можете редактировать свои сообщения
Вы не можете удалять свои сообщения
Вы не можете голосовать в опросах
Вы не можете прикреплять файлы к сообщениям
Вы не можете скачивать файлы