Небо падших (Валентин Донсков) [2014, Россия, Драма, HDTV 1080i]

Ответить на тему
 
Автор Сообщение

user ®

Стаж: 7 лет 7 месяцев

Сообщений: 20008

Пост Пост: #1 от 21-Ноя-2014 00:40

[Цитировать]

Небо падших
Страна: Россия
Студия: "Народное кино"
Жанр: Драма
Год выпуска: 2014
Продолжительность: 01:56:48
Перевод: Не требуется
Cубтитры: нет
Режиссер: Валентин Донсков
В ролях: Кирилл Плетнёв, Екатерина Вилкова, Анастасия Панина, Даниил Воробьев, Александр Сирин, Александр Наумов, Егор Баринов, Владислав Ветров, Александр Печенин, Дмитрий Калистратов
Описание: Конец 1980-х. Павел Шарманов, будучи студентом авиационного института, всегда бредящий небом, начинал сторожем в музее авиации под открытым небом. Эта работа стремительно и кардинально изменила его дальнейшую жизнь.
1990-е. Перестройка. Деньги, власть, взятки, предательство друзей. Шарманов — основатель и владелец крупнейшей авиационной компании в стране. Все блага мира у его ног. Бери, что хочешь. Единственно, что недоступно успешному молодому мужчине — любовь. Он не ищет ее, но она найдет его «совсем нежданно», закрутит в лихом вихре, поднимет высоко в небеса, заставит чувствовать, парить и не придавать значения материальному…
Чем выше и быстрее взлетаешь, тем быстрее и больнее падаешь. Любовь милосердна, но порой и жестока, и как любить, каждый решает сам…
Сэмпл: http://multi-up.com/1014216
Тип релиза: HDTV 1080i
Контейнер: TS
Видео: AVC, 1920х1080, 16:9, 7916 Кбит/сек, 25 fps
Аудио: MPEG Audio, 192 Кбит/сек, 48 КГц, 2 канала
MediaInfo
Общее
Идентификатор : 16 (0x10)
Полное имя : Sky Fallen_HD.ts
Формат : MPEG-TS
Размер файла : 6,93 Гбайт
Продолжительность : 1 ч. 56 м.
Режим общего битрейта : Переменный
Общий поток : 8532 Кбит/сек
Видео
Идентификатор : 3401 (0xD49)
Идентификатор меню : 1401 (0x579)
Формат : AVC
Формат/Информация : Advanced Video Codec
Профиль формата : High@L4.0
Параметр CABAC формата : Да
Параметр ReFrames формата : 3 кадра
Идентификатор кодека : 27
Продолжительность : 1 ч. 56 м.
Битрейт : 7916 Кбит/сек
Ширина : 1920 пикселей
Высота : 1080 пикселей
Соотношение сторон : 16:9
Частота кадров : 25,000 кадров/сек
Стандарт вещания : PAL
Цветовое пространство : YUV
Субдискретизация насыщенности : 4:2:0
Битовая глубина : 8 бит
Тип развёртки : Чересстрочная
Порядок развёртки : Верхнее поле первое
Бит/(Пиксели*Кадры) : 0.153
Размер потока : 6,42 Гбайт (93%)
Основные цвета : BT.709
Характеристики трансфера : BT.709
Коэффициенты матрицы : BT.709
Аудио
Идентификатор : 4401 (0x1131)
Идентификатор меню : 1401 (0x579)
Формат : MPEG Audio
Версия формата : Version 1
Профиль формата : Layer 2
Идентификатор кодека : 4
Продолжительность : 1 ч. 56 м.
Вид битрейта : Постоянный
Битрейт : 192 Кбит/сек
Каналы : 2 канала
Частота : 48,0 КГц
Метод сжатия : С потерями
Задержка видео : 103 мс.
Размер потока : 160 Мбайт (2%)
Язык : std
Язык, дополнительно : Clean effects
Скриншоты
Скачать

Скачать торрент!

Как скачивать? · Что такое торрент? · Рейтинг и ограничения

Сайт не распространяет и не хранит электронные версии произведений, а лишь предоставляет доступ к создаваемому пользователями каталогу ссылок на торрент-файлы, которые содержат только списки хеш-сумм

[Профиль] [ЛС]
Показать сообщения:    
Ответить на тему

Текущее время: Сегодня 06:01

Часовой пояс: GMT + 4



Вы не можете начинать темы
Вы не можете отвечать на сообщения
Вы не можете редактировать свои сообщения
Вы не можете удалять свои сообщения
Вы не можете голосовать в опросах
Вы не можете прикреплять файлы к сообщениям
Вы не можете скачивать файлы