Темный властелин / Kaala Samrajya (Дипак Бахри / Deepak Bahry) [1999, Индия, Боевик, мелодрама, SATRip] MVO (Zee Tv)

Ответить на тему
 
Автор Сообщение

user ®

Стаж: 12 лет

Сообщений: 15092

Пост Пост: #1 от 19-Ноя-2014 16:35

[Цитировать]

Темный властелин / Kaala Samrajya
Страна: Индия
Жанр: Боевик, мелодрама
Год выпуска: 1999
Продолжительность: 01:50:55
Перевод: Профессиональный (многоголосый закадровый) Zee Tv
Cубтитры: нет
Режиссер: Дипак Бахри / Deepak Bahry
В ролях: Сунил Шетти, Моника Беди, Амриш Пури, Дипак Ширке, Джаспал Бхатти, Тедж Сапру, Хариш Патель, Махру Шейкх, Шива Риндани, Джек Гауд, Камал Малик, Муштак Кхан, Арун Бакши, Бриджеш Тивари, Раджа Дуггал, К.К. Радж, Джасси Сингх, Шаши Шарма, Пушпа Верма, Шиба, Риту Шивпури
Описание: Во время криминальной разборки между двумя главарями Калкешваром Сингхом и Альбертом, Альбер был убит Арджуном, которого Калкешвар приглашает работать на него. Калкешвар знакомит его со своей красавицей женой Моникой, но вскоре он узнает об их романе. Гнев Калкешвара не знает границ, он готов на все, чтобы отомстить обидчику...
Доп. информация: Запись фильма, риппер, удаление рекламы: oktober (Спасибо!)
Временами идёт лёгкое заикание звука, так вещал телеканал Zee Tv
Сэмпл: http://multi-up.com/1014186
Качество видео: SATRip
Формат видео: AVI
Видео: DivX Codec 4.x, 640x304 (2.11:1), 25 fps, 1484 kbps avg
Аудио: AC3 Dolby Digital, 48 kHz, 2/0 (L,R) ch, 192 kbps
MediaInfo
General
Complete name : F:\Temniy.Vlastelin.1999.SATRip.DivX.Oktober.avi
Format : AVI
Format/Info : Audio Video Interleave
File size : 1.31 GiB
Duration : 1h 50mn
Overall bit rate : 1 686 Kbps
Writing application : VirtualDubMod 1.5.10.2 (build 2540/release)
Writing library : VirtualDubMod build 2540/release
Video
ID : 0
Format : MPEG-4 Visual
Format profile : Simple@L1
Format settings, BVOP : No
Format settings, QPel : No
Format settings, GMC : No warppoints
Format settings, Matrix : Default (H.263)
Codec ID : DIVX
Codec ID/Info : Project Mayo
Codec ID/Hint : DivX 4
Duration : 1h 50mn
Bit rate : 1 485 Kbps
Width : 640 pixels
Height : 304 pixels
Display aspect ratio : 2.2
Frame rate : 25.000 fps
Resolution : 24 bits
Colorimetry : 4:2:0
Scan type : Progressive
Bits/(Pixel*Frame) : 0.305
Stream size : 1.15 GiB (88%)
Writing library : Lavc53.33.0
Audio
ID : 1
Format : AC-3
Format/Info : Audio Coding 3
Codec ID : 2000
Duration : 1h 50mn
Bit rate mode : Constant
Bit rate : 192 Kbps
Channel(s) : 2 channels
Channel positions : L R
Sampling rate : 48.0 KHz
Stream size : 152 MiB (11%)
Alignment : Split accross interleaves
Interleave, duration : 40 ms (1.00 video frame)
Interleave, preload duration : 500 ms
Скриншоты
Скачать

Скачать торрент! Темный властелин / Kaala Samrajya (Дипак Бахри / Deepak Bahry) [1999, Индия, Боевик, мелодрама, SATRip] MVO (Zee Tv)

Как скачивать? · Что такое торрент? · Рейтинг и ограничения

Сайт не распространяет и не хранит электронные версии произведений, а лишь предоставляет доступ к создаваемому пользователями каталогу ссылок на торрент-файлы, которые содержат только списки хеш-сумм

[Профиль] [ЛС]
Показать сообщения:    
Ответить на тему

Текущее время: Сегодня 12:57

Часовой пояс: GMT + 4



Вы не можете начинать темы
Вы не можете отвечать на сообщения
Вы не можете редактировать свои сообщения
Вы не можете удалять свои сообщения
Вы не можете голосовать в опросах
Вы не можете прикреплять файлы к сообщениям
Вы не можете скачивать файлы