Кундо: Эпоха угрозы / Kundo: Age of the Rampant / Kundo: min-ran-eui si-dae (Юн Чжон Бин / Yoon Jong-bin) [2014, Южная Корея, исторический, драма, боевик, HDRip] DVO [DeadSno & den904] + Original Kor + Sub (rus, eng)

Ответить на тему
 
Автор Сообщение

user ®

Стаж: 13 лет

Сообщений: 15071

Пост Пост: #1 от 15-Ноя-2014 23:15

[Цитировать]

Кундо: Эпоха угрозы / Kundo: Age of the Rampant / Kundo: min-ran-eui si-dae- -Страна: Южная Корея
Жанр: исторический, драма, боевик
Год выпуска: 2014
Продолжительность: 02:17:41-Перевод: Любительский (двухголосый закадровый) [DeadSno & den904]-Cубтитры: русские, английские [отдельно]
Оригинальная аудиодорожка: корейский [отдельно]
Режиссер: Юн Чжон Бин / Yoon Jong-bin
В ролях: Ха Джон У, Кан Дон Вон, Ли Кён Ён, Ли Сон Мин, Чо Джин Ун, Ма Дон Сок, Юн Джи Хе, Сон Ён Чан, Чжон Ман Сик, Ким Бён Ок ...
Описание: 1862 год, времена правления династии Чосон. Из-за постоянных стихийных бедствий и неурожая, нищета, голод и смерть принимают угрожающие масштабы. В это время аристократия управляет страной железной рукой, заботясь только о сохранности собственного благосостояния. Крестьяне, и без того несчастные, нещадно угнетаются правящей верхушкой.
Но даже в эти трудные времена у измученного народа есть маленькая надежда вырваться из-под гнета богачей, которую они видят в Кундо...
Релиз от -
Сэмпл: http://multi-up.com/1013180
Качество видео: HDRip
Формат видео: AVI
Видео: MPEG-4 Visual at 1810 Кбит/сек; 720 x 304 (2.368) at 24.000 fps
Аудио: AC-3 at 448 Кбит/сек; 6 каналов, 48,0 КГц [DVO]
Аудио: AC-3 at 448 Кбит/сек; 6 каналов, 48,0 КГц [Kor]
Автор -
MediaInfo
Общее
Полное имя : D:\Фильмы\Азиатские\Кундо Эпоха угрозы\Kundo.Age of the Rampan.2014.HDRip.XviD.2200MB. rip by [Assassin's Creed]\Kundo.Age of the Rampan.2014.HDRip.XviD.2200MB. rip by [Assassin's Creed].avi
Формат : AVI
Формат/Информация : Audio Video Interleave
Профиль формата : OpenDML
Размер файла : 2,18 Гбайт
Продолжительность : 2 ч. 17 м.
Общий поток : 2270 Кбит/сек
Программа кодирования : VirtualDubMod 1.5.10.2 (build 2540/release)
Библиотека кодирования : VirtualDubMod build 2540/release
Видео
Идентификатор : 0
Формат : MPEG-4 Visual
Профиль формата : Advanced Simple@L5
Параметр BVOP формата : 1
Параметр QPel формата : Нет
Параметр GMC формата : Без точки перехода
Параметр матрицы формата : Default (MPEG)
Идентификатор кодека : XVID
Идентификатор кодека/Подсказка : XviD
Продолжительность : 2 ч. 17 м.
Битрейт : 1810 Кбит/сек
Ширина : 720 пикселей
Высота : 304 пикселя
Соотношение сторон : 2,35:1
Частота кадров : 24,000 кадра/сек
Цветовое пространство : YUV
Субдискретизация насыщенности : 4:2:0
Битовая глубина : 8 бит
Тип развёртки : Прогрессивная
Метод сжатия : С потерями
Бит/(Пиксели*Кадры) : 0.345
Размер потока : 1,74 Гбайт (80%)
Библиотека кодирования : XviD 1.2.1 (UTC 2008-12-04)
Аудио
Идентификатор : 1
Формат : AC-3
Формат/Информация : Audio Coding 3
Расширение режима : CM (complete main)
Параметр Endianness формата : Big
Идентификатор кодека : 2000
Продолжительность : 2 ч. 17 м.
Вид битрейта : Постоянный
Битрейт : 448 Кбит/сек
Каналы : 6 каналов
Расположение каналов : Front: L C R, Side: L R, LFE
Частота : 48,0 КГц
Битовая глубина : 16 бит
Метод сжатия : С потерями
Размер потока : 441 Мбайт (20%)
Выравнивание : Разделение по промежуткам
Продолжительность промежутка : 42 мс. (1,00 видеокадр)
Время предзагрузки промежутка : 500 мс.
Общее
Полное имя : D:\Фильмы\Азиатские\Кундо Эпоха угрозы\Kundo.Age of the Rampan.2014.HDRip.XviD.2200MB. rip by [Assassin's Creed]\Kundo.Age of the Rampan.2014.HDRip.XviD.2200MB. rip by [Assassin's Creed].eng.srt
Формат : SubRip
Размер файла : 74,5 Кбайт
Текст
Формат : SubRip
Метод сжатия : Без потерь
Общее
Полное имя : D:\Фильмы\Азиатские\Кундо Эпоха угрозы\Kundo.Age of the Rampan.2014.HDRip.XviD.2200MB. rip by [Assassin's Creed]\Kundo.Age of the Rampan.2014.HDRip.XviD.2200MB. rip by [Assassin's Creed].rus.srt
Формат : SubRip
Размер файла : 120 Кбайт
Текст
Формат : SubRip
Метод сжатия : Без потерь
Общее
Полное имя : D:\Фильмы\Азиатские\Кундо Эпоха угрозы\Kundo.Age of the Rampan.2014.HDRip.XviD.2200MB. rip by [Assassin's Creed]\Kundo.Age of the Rampan.2014.HDRip.XviD.2200MB. rip by [Assassin's Creed].torrent
Размер файла : 13,7 Кбайт
Общее
Полное имя : D:\Фильмы\Азиатские\Кундо Эпоха угрозы\Kundo.Age of the Rampan.2014.HDRip.XviD.2200MB. rip by [Assassin's Creed]\Kundo.Age of the Rampan.2014.HDRip.XviD.2200MB.Kor. rip by [Assassin's Creed].ac3
Формат : AC-3
Формат/Информация : Audio Coding 3
Размер файла : 441 Мбайт
Продолжительность : 2 ч. 17 м.
Режим общего битрейта : Постоянный
Общий поток : 448 Кбит/сек
Аудио
Формат : AC-3
Формат/Информация : Audio Coding 3
Расширение режима : CM (complete main)
Параметр Endianness формата : Big
Продолжительность : 2 ч. 17 м.
Вид битрейта : Постоянный
Битрейт : 448 Кбит/сек
Каналы : 6 каналов
Расположение каналов : Front: L C R, Side: L R, LFE
Частота : 48,0 КГц
Битовая глубина : 16 бит
Метод сжатия : С потерями
Размер потока : 441 Мбайт (100%)
Скриншот c названием фильма Скриншоты
Скачать

Скачать торрент! Кундо: Эпоха угрозы / Kundo: Age of the Rampant / Kundo: min-ran-eui si-dae (Юн Чжон Бин / Yoon Jong-bin) [2014, Южная Корея, исторический, драма, боевик, HDRip] DVO [DeadSno & den904] + Original Kor + Sub (rus, eng)

Как скачивать? · Что такое торрент? · Рейтинг и ограничения

Сайт не распространяет и не хранит электронные версии произведений, а лишь предоставляет доступ к создаваемому пользователями каталогу ссылок на торрент-файлы, которые содержат только списки хеш-сумм

[Профиль] [ЛС]
Показать сообщения:    
Ответить на тему

Текущее время: Сегодня 21:12

Часовой пояс: GMT + 4



Вы не можете начинать темы
Вы не можете отвечать на сообщения
Вы не можете редактировать свои сообщения
Вы не можете удалять свои сообщения
Вы не можете голосовать в опросах
Вы не можете прикреплять файлы к сообщениям
Вы не можете скачивать файлы