Мгновение любви / A moment of love (Hsiao-Chien Lin / Сяо Цзяньлинь) [2013, Китай, мелодрама, драма, HDRip] VO

Ответить на тему
 
Автор Сообщение

user ®

Стаж: 13 лет

Сообщений: 15071

Пост Пост: #1 от 07-Ноя-2014 18:55

[Цитировать]

Мгновение любви / A moment of love
Страна: Китай
Жанр: мелодрама / драма
Год выпуска: 2013
Продолжительность: 01:33:36
Перевод: Одноголосый закадровый
Cубтитры: нет
Оригинальная аудиодорожка: китайская
Режиссер: Hsiao-Chien Lin / Сяо Цзяньлинь
В ролях:
Вик Чжоу - Сюй Няньцзу
Лю Шиши - Цзи Яцин
Чжоу Ивэй - Чен Чжиюань
Лю Юнь - Вивиан
Описание
Цзи Яцин, редактор журнала о путешествиях, в разгар подготовки к свадьбе отправляется в командировку в Юньнань Пуэр, где случайно получает письмо от мужчины, адресованное любимой с таким же, как у неё, именем.
Яцин решает, что это подходящая тема для статьи о Юньнань.
Сюй Няньцзу - свободный художник, прибывший в Юньнань Пуэр, чтобы найти бывшую любимую своего деда и отдать ей письма, которые тот писал на протяжении всей своей жизни.
По воле случая на поиски они отправляются вместе. Что же принесет каждому из них это путешествие?
Ведь каждый человек привозит из поездки что-то своё: сувениры, фотографии и впечатления...
А может, это способ познать самого себя, разобраться с чувствами и вернуться туда, где начинается любовь?
Доп. информация:

Релиз-группа "ClubFATE"
Озвучивание: Лана (Lana)
Фансаб-группа "Samjogo Subbing Squad"
Перевод: Versia_corp
Редактор: Valent

Сэмпл: http://multi-up.com/1011531
Качество видео: HDRip
Формат видео: AVI
Видео: MPEG-4, 720x304, 2.35:1, 23.976 fps, 991 Kbps
Аудио: MP3, 44.1 KHz, 256 Kbps, 2 channels
Аудио 2: MP3, 44.1 KHz, 256 Kbps, 2 channels
MediaInfo
Format : AVI
Format/Info : Audio Video Interleave
File size : 1 016 MiB
Duration : 1h 33mn
Overall bit rate : 1 517 Kbps
Writing application : VirtualDubModRus 1.5.10.2 (build 2542/release)
Writing library : VirtualDubMod build 2542/release
Video
ID : 0
Format : MPEG-4 Visual
Format profile : Simple@L3
Format settings, BVOP : No
Format settings, QPel : No
Format settings, GMC : No warppoints
Format settings, Matrix : Default (H.263)
Codec ID : FMP4
Duration : 1h 33mn
Bit rate : 991 Kbps
Width : 720 pixels
Height : 304 pixels
Display aspect ratio : 2.35:1
Frame rate : 23.976 fps
Color space : YUV
Chroma subsampling : 4:2:0
Bit depth : 8 bits
Scan type : Progressive
Compression mode : Lossy
Bits/(Pixel*Frame) : 0.189
Stream size : 663 MiB (65%)
Writing library : XviD 1.2.1 (UTC 2008-12-04)
Audio #1
ID : 1
Format : MPEG Audio
Format version : Version 1
Format profile : Layer 3
Codec ID : 55
Codec ID/Hint : MP3
Duration : 1h 33mn
Bit rate mode : Constant
Bit rate : 256 Kbps
Channel(s) : 2 channels
Sampling rate : 44.1 KHz
Compression mode : Lossy
Stream size : 171 MiB (17%)
Alignment : Split accross interleaves
Interleave, duration : 42 ms (1.00 video frame)
Interleave, preload duration : 500 ms
Audio #2
ID : 2
Format : MPEG Audio
Format version : Version 1
Format profile : Layer 3
Codec ID : 55
Codec ID/Hint : MP3
Duration : 1h 33mn
Bit rate mode : Constant
Bit rate : 256 Kbps
Channel(s) : 2 channels
Sampling rate : 44.1 KHz
Compression mode : Lossy
Stream size : 171 MiB (17%)
Alignment : Split accross interleaves
Interleave, duration : 42 ms (1.00 video frame)
Interleave, preload duration : 500 ms
Скриншот c названием фильма Скриншоты
Скачать

Скачать торрент! Мгновение любви / A moment of love (Hsiao-Chien Lin / Сяо Цзяньлинь) [2013, Китай, мелодрама, драма, HDRip] VO

Как скачивать? · Что такое торрент? · Рейтинг и ограничения

Сайт не распространяет и не хранит электронные версии произведений, а лишь предоставляет доступ к создаваемому пользователями каталогу ссылок на торрент-файлы, которые содержат только списки хеш-сумм

[Профиль] [ЛС]
Показать сообщения:    
Ответить на тему

Текущее время: Сегодня 10:59

Часовой пояс: GMT + 4



Вы не можете начинать темы
Вы не можете отвечать на сообщения
Вы не можете редактировать свои сообщения
Вы не можете удалять свои сообщения
Вы не можете голосовать в опросах
Вы не можете прикреплять файлы к сообщениям
Вы не можете скачивать файлы