Сюрприз для любимого (Андрей Селиванов) [2014, Россия, Мелодрама, HDTV 1080i]

Ответить на тему
 
Автор Сообщение

user ®

Стаж: 7 лет 7 месяцев

Сообщений: 20008

Пост Пост: #1 от 05-Ноя-2014 05:35

[Цитировать]

Сюрприз для любимого
Год выпуска: 2014
Производство: Россия, Кинокомпания "Русское"
Жанр: Мелодрама
Продолжительность: ~01:29:36
Субтитры: нет
Режиссёр: Андрей Селиванов
В ролях: Анна Невская, Эдуард Трухменёв, Ирина Антоненко, Диана Енакаева, Евгения Каверау, Андрей Биланов, Михаил Ремизов, Анжелика Пашкова
Описание: Юля - идеальная жена, домохозяйка и мать двух очаровательных девочек. Самозабвенная забота о любимом муже Алексее, маленьких дочерях и доме наполняет всю ее жизнь, и эта жизнь ее вполне устраивает. Но семейная идиллия разрушается в один момент: невольно Юля узнает о любовной связи Алексея с другой женщиной. И ее жизнь, такая отлаженная и, казалось, незыблемая, превращается в кошмар... Случайное знакомство с успешным бизнесменом Николаем помогает Юле вновь обрести себя и поверить в свои силы. Преодолевая боль от предательства мужа, Юля меняет свою жизнь и меняется сама. Теперь это ухоженная и женственная, умная и предприимчивая, успешная и уверенная в себе женщина - о такой можно только мечтать. Но любит Юля по-прежнему только Алексея, от которого ушла...

Качество: HDTV 1080i
Контейнер: TS
Видео: MPEG4 Video (H264) 1920x1080, ~ 7152 Кбит/сек, 25.00fps 0.138 bit/pixel
Аудио: MP2, 2 ch, 48,0 КГц, 256 Кбит/с
Сторонней рекламы нет!
MediaInfo
ОбщееИдентификатор : 1 (0x1)Полное имя : F:\Фильмы торренты\Syurpriz.dlya.Lyubimogo.2014.HDTV.(1080i).MediaClub.tsФормат : MPEG-TSРазмер файла : 4,97 ГбайтПродолжительность : 1 ч. 31 м.Режим общего битрейта : ПеременныйОбщий поток : 7795 Кбит/сек
ВидеоИдентификатор : 4113 (0x1011)Идентификатор меню : 1 (0x1)Формат : AVCФормат/Информация : Advanced Video CodecПрофиль формата : High@L4.0Параметр CABAC формата : ДаПараметр ReFrames формата : 4 кадраПараметр GOP формата : M=4, N=32Идентификатор кодека : 27Продолжительность : 1 ч. 31 м.Вид битрейта : ПеременныйБитрейт : 7152 Кбит/секМаксимальный битрейт : 40,0 Мбит/секШирина : 1920 пикселейВысота : 1080 пикселейСоотношение сторон : 16:9Частота кадров : 25,000 кадров/секЦветовое пространство : YUVСубдискретизация насыщенности : 4:2:0Битовая глубина : 8 битТип развёртки : MBAFFБит/(Пиксели*Кадры) : 0.138Размер потока : 4,56 Гбайт (92%)
АудиоИдентификатор : 4352 (0x1100)Идентификатор меню : 1 (0x1)Формат : MPEG AudioВерсия формата : Version 1Профиль формата : Layer 2Идентификатор кодека : 3Продолжительность : 1 ч. 31 м.Вид битрейта : ПостоянныйБитрейт : 256 Кбит/секКаналы : 2 каналаЧастота : 48,0 КГцМетод сжатия : С потерямиРазмер потока : 167 Мбайт (3%)Язык : Russian
Раздача группы:
Отдельное спасибо nikolspup за предоставление материала.
Скриншот c названием фильма Скриншоты
Скачать

Скачать торрент!

Как скачивать? · Что такое торрент? · Рейтинг и ограничения

Сайт не распространяет и не хранит электронные версии произведений, а лишь предоставляет доступ к создаваемому пользователями каталогу ссылок на торрент-файлы, которые содержат только списки хеш-сумм

[Профиль] [ЛС]
Показать сообщения:    
Ответить на тему

Текущее время: Сегодня 21:25

Часовой пояс: GMT + 4



Вы не можете начинать темы
Вы не можете отвечать на сообщения
Вы не можете редактировать свои сообщения
Вы не можете удалять свои сообщения
Вы не можете голосовать в опросах
Вы не можете прикреплять файлы к сообщениям
Вы не можете скачивать файлы