Мясник, повар и меченосец / Мясник, повар и мастер меча / The Butcher the Chef and the Swordsman / Dao jian xiao (Ву Эршан / Wu Ershan) [2010, Китай, Комедия, боевик, DVDRip] MVO (1 канал) + Chi

Ответить на тему
 
Автор Сообщение

user ®

Стаж: 13 лет

Сообщений: 15071

Пост Пост: #1 от 04-Ноя-2014 19:50

[Цитировать]

Мясник, повар и меченосец / Мясник, повар и мастер меча / The Butcher the Chef and the Swordsman / Dao jian xiao
Страна: Китай
Жанр: Комедия, боевик
Год выпуска: 2010
Продолжительность: 01:32:02
Перевод: Профессиональный (многоголосый закадровый) 1 канал
Cубтитры: нет
Оригинальная аудиодорожка: китайский
Режиссер: Ву Эршан / Wu Ershan
В ролях: Масанобу Андо, Ю Бенчан, Лю Сяои, Китти Чжан, Эштон Ксу
Описание: Мясник Шао Саньлян полюбил красавицу Мэй Нян и поставил перед собой цель завоевать ее сердце. Он продает мясо, однако его часто пытается оскорбить и унизить один боец ушу. Шао Саньлян, который долго не мог достичь своей цели, решает совершить самоубийство, но неожиданно получает сказочный кухонный нож.
Доп. информация: Видеоряд спЁрт из этой [url=http://***/forum/viewtopic.php?t=4208695]http://***/forum/viewtopic.php?t=4208695[/url] раздачи. Для получения размера файла близкого к стандартному можно ужать оригинальную дорогу до 384 kbps, но это здесь тоже не приветствуется.
Сэмпл: http://multi-up.com/1010931
Качество видео: DVDRip
Формат видео: AVI
Видео: MPEG4, XviD, 720x400 (16/9), 23.976 fps, 1 672 Kbps (0.242 bit/pixel)
Аудио: AC-3, 48.0 KHz, 2 ch, 192 Kbps, CBR - русский
Аудио 2: AC-3, 48.0 KHz, 6 ch, 448 Kbps, CBR - китайский
MediaInfo
Общее
Полное имя : K:\Мясник, повар и меченосец.avi
Формат : AVI
Формат/Информация : Audio Video Interleave
Размер файла : 1,50 Гбайт
Продолжительность : 1 ч. 32 м.
Общий поток : 2326 Кбит/сек
Название фильма : Мясник, повар и меченосец / Мясник, повар и мастер меча / The Butcher the Chef and the Swordsman / Dao jian xiao (2010)
Программа кодирования : VirtualDubMod 1.5.10.2 (build 2540/release)
Библиотека кодирования : VirtualDubMod build 2540/release
Видео
Идентификатор : 0
Формат : MPEG-4 Visual
Профиль формата : Advanced Simple@L5
Параметр BVOP формата : 1
Параметр QPel формата : Нет
Параметр GMC формата : Без точки перехода
Параметр матрицы формата : Выборочная
Идентификатор кодека : XVID
Идентификатор кодека/Подсказка : XviD
Продолжительность : 1 ч. 32 м.
Битрейт : 1672 Кбит/сек
Ширина : 720 пикселей
Высота : 400 пикселей
Соотношение сторон : 16:9
Частота кадров : 23,976 кадра/сек
Цветовое пространство : YUV
Субдискретизация насыщенности : 4:2:0
Битовая глубина : 8 бит
Тип развёртки : Прогрессивная
Метод сжатия : С потерями
Бит/(Пиксели*Кадры) : 0.242
Размер потока : 1,07 Гбайт (72%)
Библиотека кодирования : XviD 1.2.1 (UTC 2008-12-04)
Аудио #1
Идентификатор : 1
Формат : AC-3
Формат/Информация : Audio Coding 3
Расширение режима : CM (complete main)
Параметр Endianness формата : Big
Идентификатор кодека : 2000
Продолжительность : 1 ч. 32 м.
Вид битрейта : Постоянный
Битрейт : 192 Кбит/сек
Каналы : 2 канала
Расположение каналов : Front: L R
Частота : 48,0 КГц
Битовая глубина : 16 бит
Метод сжатия : С потерями
Размер потока : 126 Мбайт (8%)
Выравнивание : Разделение по промежуткам
Продолжительность промежутка : 42 мс. (1,00 видеокадр)
Время предзагрузки промежутка : 500 мс.
Заголовок : Профессиональный (многоголосый закадровый) 1 канал
Аудио #2
Идентификатор : 2
Формат : AC-3
Формат/Информация : Audio Coding 3
Расширение режима : CM (complete main)
Параметр Endianness формата : Big
Идентификатор кодека : 2000
Продолжительность : 1 ч. 32 м.
Вид битрейта : Постоянный
Битрейт : 448 Кбит/сек
Каналы : 6 каналов
Расположение каналов : Front: L C R, Side: L R, LFE
Частота : 48,0 КГц
Битовая глубина : 16 бит
Метод сжатия : С потерями
Размер потока : 295 Мбайт (19%)
Выравнивание : Разделение по промежуткам
Продолжительность промежутка : 42 мс. (1,00 видеокадр)
Время предзагрузки промежутка : 500 мс.
Заголовок : Китайский
Скриншоты
Скачать

Скачать торрент! Мясник, повар и меченосец / Мясник, повар и мастер меча / The Butcher the Chef and the Swordsman / Dao jian xiao (Ву Эршан / Wu Ershan) [2010, Китай, Комедия, боевик, DVDRip] MVO (1 канал) + Chi

Как скачивать? · Что такое торрент? · Рейтинг и ограничения

Сайт не распространяет и не хранит электронные версии произведений, а лишь предоставляет доступ к создаваемому пользователями каталогу ссылок на торрент-файлы, которые содержат только списки хеш-сумм

[Профиль] [ЛС]
Показать сообщения:    
Ответить на тему

Текущее время: Сегодня 16:57

Часовой пояс: GMT + 4



Вы не можете начинать темы
Вы не можете отвечать на сообщения
Вы не можете редактировать свои сообщения
Вы не можете удалять свои сообщения
Вы не можете голосовать в опросах
Вы не можете прикреплять файлы к сообщениям
Вы не можете скачивать файлы