Лермонтов (Максим Беспалый) [2014, Россия, драма, биография, HDTV 1080i]

Ответить на тему
 
Автор Сообщение

user ®

Стаж: 7 лет 7 месяцев

Сообщений: 20008

Пост Пост: #1 от 04-Ноя-2014 16:40

[Цитировать]

Лермонтов
Страна: Россия
Студия: Star Media, Бабич Дизайн
Жанр: драма, биография
Год выпуска: 2014
Продолжительность: 2 серии по 00:44:00
Перевод: Не требуется
Cубтитры: русские
Режиссер: Максим Беспалый
В ролях: Владимир Аблогин, Анна Леванова, Илья Ловкий, Семён Сердин, Василий Цыганцов, Александр Лимин, Павел Рассомахин, Сесиль Свердлова, Людмила Гамуряк, Данила Колбасеев
Описание: Михаил Лермонтов (1814-1841), величайший русский поэт и писатель. Его роман «Герой нашего времени» признан одной из самых читаемых книг в России. Его произведения во все времена были особенно актуальны и популярны среди молодых людей. Стихи и проза Лермонтова переведены на множество языков и по праву принадлежат к классике мировой литературы. Лермонтов погиб на дуэли при странных обстоятельствах в 27 лет. Он вырос без родителей, дважды был всерьез влюблен, был окружен множеством друзей, прошел войну, но всю жизнь оставался крайне одиноким. Фильм расскажет о том, как события жизни Лермонтова тесно переплетены с сюжетами его произведений. Реальная жизнь поэта незримо переходит в его вымышленный мир, а герои и события его произведений дают ответы на биографические загадки в судьбе Лермонтова. Фильм приурочен к 200-летию со дня рождения Михаила Лермонтова.
Доп. информация:
скрытый текст
Серия 1: Судьба Михаила Лермонтова с детства была отмечена тревожными предсказаниями и трагическими событиями. Акушерка, принимавшая роды, заявила – "Много я детей перевидала, а этот своей смертью не умрет". Когда мальчику исполнилось три года, от чахотки скоропостижно скончалась его мать. Детство Лермонтова прошло в пензенском имении бабушки в комфортной обстановке, но без семейного уюта. Мальчик часто болел, постельный режим не оставлял выбора: в своем воображении Лермонтов рисовал несуществующие миры. Капризный барчонок превратился во впечатлительного и импульсивного подростка, внутри которого клокотал мир страстей. Казалось бы, впереди блестящее будущее московского бонвивана, но снова трагедия – смерть отца. А за ней – ошеломительное решение о перемене судьбы.
Серия 2: 20-летний Лермонтов, красавец-корнет, недавно окончил военное училище. По Петербургу ходят слухи о том, что он сводит женщин с ума, а потом оставляет их – "потому что романы теперь надо не делать, а писать!". Как гром среди ясного неба звучит выстрел Дантеса в Пушкина - кумира Михаила. Эхом по Петербургу проносятся копии стихотворения Лермонтова "На смерть поэта". Дело принимает неожиданный оборот, и молодой поэт оказывается в ссылке на Кавказе. Следующие пять лет проходят в скитаниях по Петербургу и Кавказу, от ссылки к ссылке. Пять лет, давшие литературному миру шедевры прозы и поэзии. Пять лет кипучей жизни и войны с собой и всем миром. Пять лет до рокового выстрела, загадку которого литературоведы и биографы пытаются разгадать до сих пор…
Сэмпл: http://multi-up.com/1010716
Тип релиза: HDTV 1080i
Контейнер: TS
Видео: AVC, 1920х1080, 16:9, 7785 Кбит/сек, 25 fps
Аудио: MPEG Audio, 224 Кбит/сек, 48 КГц, 2 канала
Формат субтитров: Teletext Sub page 888
MediaInfo
Общее
Идентификатор : 16 (0x10)
Полное имя : Lermontov.ts
Формат : MPEG-TS
Размер файла : 5,55 Гбайт
Продолжительность : 1 ч. 29 м.
Режим общего битрейта : Переменный
Общий поток : 8836 Кбит/сек
Видео
Идентификатор : 1902 (0x76E)
Идентификатор меню : 92 (0x5C)
Формат : AVC
Формат/Информация : Advanced Video Codec
Профиль формата : High@L4.0
Параметр CABAC формата : Да
Параметр ReFrames формата : 3 кадра
Параметр GOP формата : M=4, N=32
Идентификатор кодека : 27
Продолжительность : 1 ч. 29 м.
Битрейт : 7785 Кбит/сек
Ширина : 1920 пикселей
Высота : 1080 пикселей
Соотношение сторон : 16:9
Частота кадров : 25,000 кадров/сек
Стандарт вещания : PAL
Цветовое пространство : YUV
Субдискретизация насыщенности : 4:2:0
Битовая глубина : 8 бит
Тип развёртки : Чересстрочная
Порядок развёртки : Верхнее поле первое
Бит/(Пиксели*Кадры) : 0.150
Размер потока : 4,89 Гбайт (88%)
Основные цвета : BT.709
Характеристики трансфера : BT.709
Коэффициенты матрицы : BT.709
Аудио #1
Идентификатор : 2902 (0xB56)
Идентификатор меню : 92 (0x5C)
Формат : MPEG Audio
Версия формата : Version 1
Профиль формата : Layer 2
Идентификатор кодека : 4
Продолжительность : 1 ч. 29 м.
Вид битрейта : Постоянный
Битрейт : 224 Кбит/сек
Каналы : 2 канала
Частота : 48,0 КГц
Метод сжатия : С потерями
Задержка видео : 32 мс.
Размер потока : 144 Мбайт (3%)
Язык : std
Язык, дополнительно : Clean effects
Текст
Идентификатор : 33 (0x21)-100
Идентификатор меню : 92 (0x5C)
Формат : Teletext
Меню
Идентификатор : 902 (0x386)
Идентификатор меню : 92 (0x5C)
Продолжительность : 1 ч. 29 м.
Список : 1902 (0x76E) (AVC) / 2902 (0xB56) (MPEG Audio, std) / 3902 (0xF3E) (AC-3, std) / 33 (0x21) ()
Язык : / std / std
Скриншоты
Скачать

Скачать торрент!

Как скачивать? · Что такое торрент? · Рейтинг и ограничения

Сайт не распространяет и не хранит электронные версии произведений, а лишь предоставляет доступ к создаваемому пользователями каталогу ссылок на торрент-файлы, которые содержат только списки хеш-сумм

[Профиль] [ЛС]
Показать сообщения:    
Ответить на тему

Текущее время: Сегодня 18:09

Часовой пояс: GMT + 4



Вы не можете начинать темы
Вы не можете отвечать на сообщения
Вы не можете редактировать свои сообщения
Вы не можете удалять свои сообщения
Вы не можете голосовать в опросах
Вы не можете прикреплять файлы к сообщениям
Вы не можете скачивать файлы