7500 / 7500 (Такаси Симидзу / Takashi Shimizu) [2014, Япония, США, ужасы, триллер, детектив, BDRip-AVC] VO (Xixidok) + Sub Eng, Ger + Original Eng

Ответить на тему
 
Автор Сообщение

user ®

Стаж: 13 лет

Сообщений: 15071

Пост Пост: #1 от 04-Ноя-2014 13:30

[Цитировать]

7500 / 7500
Страна: Япония, США
Жанр: ужасы, триллер, детектив
Год выпуска: 2014
Продолжительность: 01:19:49
Перевод: Одноголосый закадровый Xixidok
Cубтитры: английские, немецкие(srt)
Оригинальная аудиодорожка: английский
Режиссер: Такаси Симидзу / Takashi Shimizu
В ролях: Райан Квантен, Эми Смарт, Лесли Бибб, Джейми Чунг, Скаут Тейлор-Комптон, Никки Уилан, Джерри Феррара, Кристиан Серратос, Алекс Фрост, Рик Келли
Описание: Действующие лица фильма — группа пассажиров рейса Vista Pacific 7500, совершающего перелет через Тихий океан. Мерное и тоскливое течение времени во время полета внезапно нарушается, и герои сталкиваются с некой сверхъестественной силой, вносящей не самое приятное разнообразие в замкнутом пространстве.
Релиз от -
Сэмпл: http://multi-up.com/1010738
Качество видео: BDRip-AVC / 7500 2014 576p BDRip x264-HANDJOB
Формат видео: MKV
Видео: MPEG-4 AVC Video / 1707 Kbps / 1024 х 552p / 23.976 fps
Аудио 1: Dolby Digital Audio / Russian / 2.0 / 48 kHz / 192 kbps - Rus
Аудио 2: Dolby Digital Audio / English / 5.1 / 48 kHz / 448 kbps - Eng

MediaInfo
General
Unique ID : 254787681136152583202769846685874629366 (0xBFAE528C7BD0301FB25756108E59AAF6)
Complete name : D:\kirovtorrent\7500.2014.BDRip-AVC.mkv
Format : Matroska
Format version : Version 4 / Version 2
File size : 1.34 GiB
Duration : 1h 19mn
Overall bit rate : 2 395 Kbps
Encoded date : UTC 2014-11-03 15:52:29
Writing application : mkvmerge v6.8.0 ('Theme for Great Cities') 64bit built on Mar 2 2014 21:34:26
Writing library : libebml v1.3.0 + libmatroska v1.4.1
Video
ID : 1
Format : AVC
Format/Info : Advanced Video Codec
Format profile : High@L4.0
Format settings, CABAC : Yes
Format settings, ReFrames : 11 frames
Codec ID : V_MPEG4/ISO/AVC
Duration : 1h 19mn
Bit rate : 1 707 Kbps
Width : 1 024 pixels
Height : 552 pixels
Display aspect ratio : 1.85:1
Frame rate mode : Constant
Frame rate : 23.976 fps
Color space : YUV
Chroma subsampling : 4:2:0
Bit depth : 8 bits
Scan type : Progressive
Bits/(Pixel*Frame) : 0.126
Stream size : 975 MiB (71%)
Title : RG Orient Extreme Films
Writing library : x264 core 130 r2273 b3065e6
Encoding settings : cabac=1 / ref=11 / deblock=1:-3:-3 / analyse=0x3:0x133 / me=umh / subme=9 / psy=1 / psy_rd=1.00:0.00 / mixed_ref=1 / me_range=32 / chroma_me=1 / trellis=2 / 8x8dct=1 / cqm=0 / deadzone=21,11 / fast_pskip=0 / chroma_qp_offset=-2 / threads=12 / lookahead_threads=3 / sliced_threads=0 / nr=0 / decimate=1 / interlaced=0 / bluray_compat=0 / constrained_intra=0 / bframes=16 / b_pyramid=2 / b_adapt=2 / b_bias=0 / direct=3 / weightb=1 / open_gop=0 / weightp=2 / keyint=240 / keyint_min=24 / scenecut=40 / intra_refresh=0 / rc_lookahead=50 / rc=crf / mbtree=1 / crf=16.0 / qcomp=0.60 / qpmin=0 / qpmax=69 / qpstep=4 / ip_ratio=1.40 / aq=1:1.20
Language : English
Default : Yes
Forced : No
Color primaries : BT.709
Transfer characteristics : BT.709
Matrix coefficients : BT.709
Audio #1
ID : 2
Format : AC-3
Format/Info : Audio Coding 3
Mode extension : CM (complete main)
Format settings, Endianness : Big
Codec ID : A_AC3
Duration : 1h 19mn
Bit rate mode : Constant
Bit rate : 192 Kbps
Channel(s) : 2 channels
Channel positions : Front: L R
Sampling rate : 48.0 KHz
Bit depth : 16 bits
Compression mode : Lossy
Stream size : 110 MiB (8%)
Title : VO (Xixidok) AC3 2.0 @ 192k
Language : Russian
Default : Yes
Forced : No
Audio #2
ID : 3
Format : AC-3
Format/Info : Audio Coding 3
Mode extension : CM (complete main)
Format settings, Endianness : Big
Codec ID : A_AC3
Duration : 1h 19mn
Bit rate mode : Constant
Bit rate : 448 Kbps
Channel(s) : 6 channels
Channel positions : Front: L C R, Side: L R, LFE
Sampling rate : 48.0 KHz
Bit depth : 16 bits
Compression mode : Lossy
Stream size : 256 MiB (19%)
Title : ENG AC3 5.1 @ 448k
Language : English
Default : No
Forced : No
Text #1
ID : 4
Format : UTF-8
Codec ID : S_TEXT/UTF8
Codec ID/Info : UTF-8 Plain Text
Language : English
Default : No
Forced : No
Text #2
ID : 5
Format : UTF-8
Codec ID : S_TEXT/UTF8
Codec ID/Info : UTF-8 Plain Text
Language : German
Default : No
Forced : No
Menu
00:00:00.000 : :Chapter 1
00:07:42.170 : :Chapter 2
00:16:42.626 : :Chapter 3
00:25:24.814 : :Chapter 4
00:32:41.834 : :Chapter 5
00:45:08.247 : :Chapter 6
00:52:07.666 : :Chapter 7
00:59:56.593 : :Chapter 8
01:09:38.632 : :Chapter 9
01:16:17.739 : :Chapter 10
Скриншот c названием фильма Скриншоты
Скачать

Скачать торрент! 7500 / 7500 (Такаси Симидзу / Takashi Shimizu) [2014, Япония, США, ужасы, триллер, детектив, BDRip-AVC] VO (Xixidok) + Sub Eng, Ger + Original Eng

Как скачивать? · Что такое торрент? · Рейтинг и ограничения

Сайт не распространяет и не хранит электронные версии произведений, а лишь предоставляет доступ к создаваемому пользователями каталогу ссылок на торрент-файлы, которые содержат только списки хеш-сумм

[Профиль] [ЛС]
Показать сообщения:    
Ответить на тему

Текущее время: Сегодня 17:03

Часовой пояс: GMT + 4



Вы не можете начинать темы
Вы не можете отвечать на сообщения
Вы не можете редактировать свои сообщения
Вы не можете удалять свои сообщения
Вы не можете голосовать в опросах
Вы не можете прикреплять файлы к сообщениям
Вы не можете скачивать файлы